Подписывайся на наш канал в Telegram https://t.me/torrentok и получи доступ к торрентам без ограничений!
. bolt.mmix.club
Авторские права
con...@...Показать
Вход на сайт
Логин:
Пароль:
 
Навигация по сайту
Популярные статьи

Торрент трекер | Скачать торрент | Скачать через Торрент | Скачать торрент бесплатно | Скачать торрент без регистрации Программы торрент скачать Форпост / The Outpost (2020) BDRip [1080p] ATV3 торрент скачать бесплатно

Форпост / The Outpost (2020) BDRip [1080p] ATV3 торрент скачать бесплатно

Программы торрент скачать
Форпост / The Outpost (2020) BDRip [1080p] ATV3Производство : США, Болгария/Millennium Media, York Films
Жанр : Боевик, военный, драма, история
Режиссер : Род Лури
Продюсер : Марк Фридман, Джеффри Гринштейн, Пол Тэймеси
Актеры : Скотт Иствуд, Калеб Лэндри Джонс, Орландо Блум, Селина Синден, Майло Гибсон, Джек Кеси, Джейкоб Скипио, Тейлор Джон Смит, Александр Арнольд, Джеймс Джаггер
Описание : В 2006 году в северном Афганистане армия США установила несколько блокпостов, чтобы препятствовать контрабанде оружия и перемещению боевиков движения Талибан из Пакистана. Форпост Китинг располагался в горах Гиндукуш - военная база со всех сторон была окружена горами и находилась в невыгодной позиции. 3 октября 2009 года американским военным пришлось вступить в неравный бой с превосходящими силами талибов.


Возраст: 18+ (Зрителям, достигшим 18 лет)
Рейтинг MPAA: R (Лицам до 17 обязательно присутствие взрослых)
Дата мировой премьеры: 24 июня 2020
Дата российской премьеры: 13 августа 2020, MEGOGO Distribution
Релиз от: Kosatka
Продолжительность : 02: 03: 15
Качество видео : BDRip 1080p
Перевод: Дублированный(iTunes)
Субтитры: Русские (Forced), английские (Full, SDH)
Видео: AVC/H.264, 1920x1040, 13.0 Mbps, 23.976 fps
Аудио 1 : AAC, 2.0 ch, 160 Kbps | Русский
Аудио 2 : AAC, 2.0 ch, 160 Kbps | Английский
Аудио 3 : AC-3, 6 ch, 384 Kbps | Русский
Аудио 4 : AC-3, 6 ch, 640 Kbps | Английский

Sort Name: The Outpost
XID: Apple: vendor_id: 2020-1163442
contentID: 1515512877
Copyright: © 2020 OUTPOST PRODUCTIONS, INC. ALL RIGHTS RESERVED.
Screenwriters: Пол Тэймеси, Эрик Джонсон, Джейк Таппер
Producers: Джеффри Гринштейн, Ярив Лернер, Лес Уэлдон
Director: Род Лури
Cast: Скотт Иствуд, Калеб Лэндри Джонс, Орландо Блум, Селина Синден, Майло Гибсон, Джек Кеси, Джейкоб Скипио, Тейлор Джон Смит, Александр Арнольд, Джеймс Джаггер
Studio: Screen Media
Rating: 5
Long Description: В 2006 году в северном Афганистане армия США установила несколько блокпостов, чтобы препятствовать контрабанде оружия и перемещению боевиков движения Талибан из Пакистана. Форпост Китинг располагался в горах Гиндукуш - военная база со всех сторон была окружена горами и находилась в невыгодной позиции. 3 октября 2009 года американским военным пришлось вступить в неравный бой с превосходящими силами талибов.
Description: В 2006 году в северном Афганистане армия США установила несколько блокпостов, чтобы препятствовать контрабанде оружия и перемещению боевиков движения Талибан из Пакистана. Форпост Китинг располагался в горах Гиндукуш - военная база со всех сторон была окружена горами и находилась в невыгодной позиции. 3 октября 2009 года американским военным пришлось вступить в неравный бой с превосходящими силами талибов.
Release Date: 2020-07-03T07: 00: 00Z
Genre: Action Adventure
Artist: Rod Lurie
Name: The Outpost

General
Complete name : /Users/imac/HandBrake/The.Outpost.BDRip.1080p.HD.m4v
Format : MPEG-4
Codec ID : M4V (M4V /M4A /mp42/isom)
File size : 12.3 GiB
Duration : 2 h 3 min
Overall bit rate mode : Variable
Overall bit rate : 14.3 Mb/s
Movie name : The Outpost
Performer : Rod Lurie
Director : Род Лури
Actor : Скотт Иствуд/Калеб Лэндри Джонс/Орландо Блум/Селина Синден/Майло Гибсон/Джек Кеси/Джейкоб Скипио/Тейлор Джон Смит/Александр Арнольд/Джеймс Джаггер
Screenplay by : Пол Тэймеси/Эрик Джонсон/Джейк Таппер
Producer : Джеффри Гринштейн/Ярив Лернер/Лес Уэлдон
Production studio : Screen Media
Genre : Action Adventure
ContentType : Short Film
Description : В 2006 году в северном Афганистане армия США установила несколько блокпостов, чтобы препятствовать контрабанде оружия и перемещению боевиков движения Талибан из Пакистана. Форпост Китинг располагался в горах Гиндукуш - военная база со всех сторон была окружена горами и находилась в невыгодной позиции. 3 октября 2009 года американским военным пришлось вступить в неравный бой с превосходящими силами талибов.
Recorded date : UTC 2020-07-03 07: 00: 00
Encoded date : UTC 2020-10-29 13: 43: 38
Tagged date : UTC 2020-10-29 13: 51: 01
Copyright : © 2020 OUTPOST PRODUCTIONS, INC. ALL RIGHTS RESERVED.
Cover : Yes
Rating : None
Title/Sort : The Outpost
LongDescription : В 2006 году в северном Афганистане армия США установила несколько блокпостов, чтобы препятствовать контрабанде оружия и перемещению боевиков движения Талибан из Пакистана. Форпост Китинг располагался в горах Гиндукуш - военная база со всех сторон была окружена горами и находилась в невыгодной позиции. 3 октября 2009 года американским военным пришлось вступить в неравный бой с превосходящими силами талибов.
AppleStoreCatalogID : 1515512877
Vendor : Apple: vendor_id: 2020-1163442
ContentRating : mpaa|R|400|
Video #1
ID : 1
Format : AVC
Format/Info : Advanced Video Codec
Format profile : High@L4.1
Format settings : CABAC/4 Ref Frames
Format settings, CABAC : Yes
Format settings, Reference frames : 4 frames
Codec ID : avc1
Codec ID/Info : Advanced Video Coding
Duration : 2 h 3 min
Bit rate : 13.0 Mb/s
Width : 1 920 pixels
Height : 1 040 pixels
Display aspect ratio : 1.85: 1
Frame rate mode : Variable
Frame rate : 23.976 (24000/1001) FPS
Minimum frame rate : 23.810 FPS
Maximum frame rate : 24.390 FPS
Color space : YUV
Chroma subsampling : 4: 2: 0
Bit depth : 8 bits
Scan type : Progressive
Bits/(Pixel*Frame) : 0.272
Stream size : 11.2 GiB (91%)
Title : Main Program
Writing library : x264 core 157 r2935 545de2f
Encoding settings : cabac=1/ref=4/deblock=1: -3: -2/analyse=0x3: 0x133/me=umh/subme=9/psy=1/psy_rd=1.00: 0.00/mixed_ref=1/me_range=32/chroma_me=1/trellis=2/8x8dct=1/cqm=0/deadzone=6, 6/fast_pskip=1/chroma_qp_offset=-2/threads=32/lookahead_threads=8/sliced_threads=0/nr=0/decimate=0/interlaced=0/bluray_compat=0/constrained_intra=0/bframes=16/b_pyramid=2/b_adapt=2/b_bias=0/direct=3/weightb=1/open_gop=0/weightp=2/keyint=240/keyint_min=24/scenecut=40/intra_refresh=0/rc_lookahead=40/rc=2pass/mbtree=1/bitrate=13000/ratetol=1.0/qcomp=0.80/qpmin=0/qpmax=69/qpstep=4/cplxblur=20.0/qblur=0.5/vbv_maxrate=62500/vbv_bufsize=78125/nal_hrd=none/filler=0/ip_ratio=1.10/aq=1: 0.50
Language : English
Encoded date : UTC 2020-10-29 13: 43: 38
Tagged date : UTC 2020-10-29 13: 44: 41
Color range : Limited
Color primaries : BT.709
Transfer characteristics : BT.709
Matrix coefficients : BT.709
Menus : 9, 10
Codec configuration box : avcC
Video #2
ID : 10
Format : JPEG
Codec ID : jpeg
Duration : 2 h 3 min
Bit rate mode : Variable
Bit rate : 550 b/s
Width : 640 pixels
Height : 346 pixels
Display aspect ratio : 1.85: 1
Frame rate mode : Variable
Frame rate : 0.002 FPS
Minimum frame rate : 0.002 FPS
Maximum frame rate : 0.006 FPS
Color space : YUV
Chroma subsampling : 4: 2: 0
Bit depth : 8 bits
Compression mode : Lossy
Bits/(Pixel*Frame) : 1.242
Stream size : 538 KiB (0%)
Title : Chapter Images
Language : English
Default : No
Encoded date : UTC 2020-10-29 13: 44: 47
Tagged date : UTC 2020-10-29 13: 44: 48
Menu For : 1
ColorSpace_ICC : RGB
Audio #1
ID : 2
Format : AAC LC
Format/Info : Advanced Audio Codec Low Complexity
Codec ID : mp4a-40-2
Duration : 2 h 3 min
Source duration : 2 h 3 min
Bit rate mode : Variable
Bit rate : 155 kb/s
Maximum bit rate : 237 kb/s
Channel(s) : 2 channels
Channel layout : L R
Sampling rate : 48.0 kHz
Frame rate : 46.875 FPS (1024 SPF)
Compression mode : Lossy
Stream size : 137 MiB (1%)
Source stream size : 137 MiB (1%)
Title : Russian Stereo
Language : Russian
Default : Yes
Alternate group : 1
Encoded date : UTC 2020-10-29 13: 43: 38
Tagged date : UTC 2020-10-29 13: 43: 45
Fallback From : 4
Subtitles : 6
Audio #2
ID : 3
Format : AAC LC
Format/Info : Advanced Audio Codec Low Complexity
Codec ID : mp4a-40-2
Duration : 2 h 3 min
Source duration : 2 h 3 min
Bit rate mode : Variable
Bit rate : 156 kb/s
Maximum bit rate : 268 kb/s
Channel(s) : 2 channels
Channel layout : L R
Sampling rate : 48.0 kHz
Frame rate : 46.875 FPS (1024 SPF)
Compression mode : Lossy
Stream size : 137 MiB (1%)
Source stream size : 137 MiB (1%)
Title : English Stereo
Language : English
Default : No
Alternate group : 1
Encoded date : UTC 2020-10-29 13: 43: 38
Tagged date : UTC 2020-10-29 13: 43: 45
Fallback From : 5
Audio #3
ID : 4
Format : AC-3
Format/Info : Audio Coding 3
Commercial name : Dolby Digital
Codec ID : ac-3
Duration : 2 h 3 min
Bit rate mode : Constant
Bit rate : 384 kb/s
Channel(s) : 6 channels
Channel layout : L R C LFE Ls Rs
Sampling rate : 48.0 kHz
Frame rate : 31.250 FPS (1536 SPF)
Compression mode : Lossy
Stream size : 339 MiB (3%)
Title : Russian DD 5.1
Language : Russian
Service kind : Complete Main
Default : Inherited From: 2
Alternate group : 1
Encoded date : UTC 2020-10-29 13: 43: 38
Tagged date : UTC 2020-10-29 13: 44: 41
Fallback To : 2
Subtitles : 6
Audio #4
ID : 5
Format : AC-3
Format/Info : Audio Coding 3
Commercial name : Dolby Digital
Codec ID : ac-3
Duration : 2 h 3 min
Bit rate mode : Constant
Bit rate : 640 kb/s
Channel(s) : 6 channels
Channel layout : L R C LFE Ls Rs
Sampling rate : 48.0 kHz
Frame rate : 31.250 FPS (1536 SPF)
Compression mode : Lossy
Stream size : 564 MiB (4%)
Title : English DD 5.1
Language : English
Service kind : Complete Main
Default : No
Alternate group : 1
Encoded date : UTC 2020-10-29 13: 43: 38
Tagged date : UTC 2020-10-29 13: 43: 43
Fallback To : 3
Text #1
ID : 6
Format : Timed Text
Muxing mode : sbtl
Codec ID : tx3g
Duration : 1 h 55 min
Bit rate mode : Variable
Bit rate : 5 b/s
Stream size : 4.19 KiB (0%)
Title : Russian forced
Language : Russian
Default : Yes
Forced : Yes
Alternate group : 2
Encoded date : UTC 2020-10-29 13: 43: 38
Tagged date : UTC 2020-10-29 13: 44: 41
Subtitles For : 2, 4
Text #2
ID : 7
Format : Timed Text
Muxing mode : sbtl
Codec ID : tx3g
Duration : 2 h 2 min
Bit rate mode : Variable
Bit rate : 89 b/s
Stream size : 80.2 KiB (0%)
Title : English full
Language : English
Default : No
Forced : No
Alternate group : 2
Encoded date : UTC 2020-10-29 13: 43: 38
Tagged date : UTC 2020-10-29 13: 44: 41
Text #3
ID : 8
Format : Timed Text
Muxing mode : sbtl
Codec ID : tx3g
Duration : 2 h 2 min
Bit rate mode : Variable
Bit rate : 94 b/s
Stream size : 84.5 KiB (0%)
Title : English SDH
Language : English
Default : No
Forced : No
Alternate group : 2
Encoded date : UTC 2020-10-29 13: 43: 38
Tagged date : UTC 2020-10-29 13: 44: 41
Menu #1
00: 00: 00.000 : Chapter 1
00: 10: 37.554 : Chapter 2
00: 15: 19.419 : Chapter 3
00: 24: 02.983 : Chapter 4
00: 32: 55.182 : Chapter 5
00: 41: 56.180 : Chapter 6
00: 47: 04.071 : Chapter 7
00: 55: 31.119 : Chapter 8
01: 03: 51.369 : Chapter 9
01: 12: 44.193 : Chapter 10
01: 19: 51.787 : Chapter 11
01: 29: 15.016 : Chapter 12
01: 35: 39.776 : Chapter 13
01: 42: 10.374 : Chapter 14
01: 45: 06.217 : Chapter 15
01: 54: 08.383 : Chapter 16
Menu #2
ID : 9
Codec ID : text
Duration : 2 h 3 min
Language : English
Encoded date : UTC 2020-10-29 13: 44: 41
Tagged date : UTC 2020-10-29 13: 44: 41
Menu For : 1
00: 00: 00.000 : Chapter 1
00: 10: 37.554 : Chapter 2
00: 15: 19.419 : Chapter 3
00: 24: 02.983 : Chapter 4
00: 32: 55.182 : Chapter 5
00: 41: 56.180 : Chapter 6
00: 47: 04.071 : Chapter 7
00: 55: 31.119 : Chapter 8
01: 03: 51.369 : Chapter 9
01: 12: 44.193 : Chapter 10
01: 19: 51.787 : Chapter 11
01: 29: 15.016 : Chapter 12
01: 35: 39.776 : Chapter 13
01: 42: 10.374 : Chapter 14
01: 45: 06.217 : Chapter 15
01: 54: 08.383 : Chapter 16

x264 info: frame I: 898 Avg QP: 16.90 size: 174767
x264 info: frame P: 46380 Avg QP: 18.20 size: 110213
x264 info: frame B: 129986 Avg QP: 18.85 size: 51841
x264 info: consecutive B-frames: 5.3% 5.5% 17.4% 11.7% 10.3% 42.0% 2.9% 0.4% 1.0% 0.3% 0.2% 0.2% 0.1% 0.2% 0.6% 0.9% 1.0%
x264 info: mb I I16..4: 21.1% 62.9% 16.1%
x264 info: mb P I16..4: 4.2% 13.7% 2.2% P16..4: 43.0% 18.2% 10.8% 0.6% 0.1% skip: 7.2%
x264 info: mb B I16..4: 0.3% 1.1% 0.2% B16..8: 46.1% 11.4% 2.6% direct: 12.3% skip: 26.0% L0: 48.0% L1: 40.5% BI: 11.5%
x264 info: 8x8 transform intra: 67.8% inter: 54.0%
x264 info: direct mvs spatial: 98.9% temporal: 1.1%
x264 info: coded y, uvDC, uvAC intra: 86.1% 87.7% 66.1% inter: 44.2% 55.9% 21.5%
x264 info: i16 v, h, dc, p: 24% 14% 24% 37%
x264 info: i8 v, h, dc, ddl, ddr, vr, hd, vl, hu: 9% 9% 6% 10% 15% 13% 14% 11% 13%
x264 info: i4 v, h, dc, ddl, ddr, vr, hd, vl, hu: 8% 9% 5% 9% 15% 13% 14% 11% 15%
x264 info: i8c dc, h, v, p: 47% 20% 17% 16%
x264 info: Weighted P-Frames: Y: 3.2% UV: 1.5%
x264 info: ref P L0: 56.1% 12.6% 19.5% 10.7% 1.0% 0.0%
x264 info: ref B L0: 86.8% 11.0% 2.3%
x264 info: ref B L1: 95.8% 4.2%
x264 info: kb/s: 12992.44
Скриншоты :


Все одноименные релизы в Клубе
Время раздачи: 24/7 (круглосуточно)


Релиз подготовлен для просмотра наApple TV, iPad, iPhone, iPod Touch.
Для просмотра данного релиза на компьютере с ОС Windows рекомендуется использоватьVLC media player
 
Уважаемый посетитель, Вы зашли на сайт как незарегистрированный пользователь. Мы рекомендуем Вам зарегистрироваться либо зайти на сайт под своим именем.

Другие новости по теме:

  • Форпост / The Outpost (2020) WEBRip [MVO] [AD]
  • Форпост / The Outpost (2020) WEBRip [H.264 / 1080p-LQ] [MVO] [AD]
  • Форпост / The Outpost (2020) WEB-DLRip [VO] [AD]
  • Форпост / The Outpost (2020) WEB-DL [H.264 / 1080p-LQ] [EN / EN Sub]
  • Форпост / The Outpost (2020) WEB-DL [H.264 / 1080p-LQ] [MVO]
  • Форпост / The Outpost (2020) WEBRip [H.265 / 2160p-LQ] [4K, SDR, 8-bit] [MVO]
  • Форпост / The Outpost (2020) WEB-DL [H.264 / 720p] [MVO]
  • Форпост / The Outpost (2020) WEB-DLRip [H.264] [MVO] [MP4|1920x1040]


  • Информация
    Посетители, находящиеся в группе Гости, не могут оставлять комментарии в данной новости.
    Главная страница | Регистрация | Добавить новость | Новое на сайте Copyright © 2019. bolt.mmix.club All Rights Reserved