Подписывайся на наш канал в Telegram https://t.me/torrentok и получи доступ к торрентам без ограничений!
. bolt.mmix.club
Авторские права
con...@...Показать
Вход на сайт
Логин:
Пароль:
 
Навигация по сайту
Популярные статьи

Торрент трекер | Скачать торрент | Скачать через Торрент | Скачать торрент бесплатно | Скачать торрент без регистрации КПК и мобильные торрент скачать Не двигайся / Dont Move (2013) WEB-DLRip [H.264] [MP4|1280x720p] торрент скачать бесплатно

Не двигайся / Dont Move (2013) WEB-DLRip [H.264] [MP4|1280x720p] торрент скачать бесплатно

КПК и мобильные торрент скачать
Не двигайся / Dont Move (2013) WEB-DLRip [H.264] [MP4|1280x720p]Производство: Великобритания, Bloody Cuts
Жанр: Короткометражный, ужасы
Режиссер: Энтони Мелтон
Актеры: Рэйчел Брайт, Джэйк Хендрикс, Бет Купер, Кейт Брейтуэйт, Мартин Скиппер, Кэлвин Дин, Йен Уайт, Бен Тиллетт

Описание

Шестеро друзей при помощи колдовской доски вызывают из глубин преисподней страшного демона. Он слеп и глух, но от него не уйдет никто…


Продолжительность: 00: 13: 56
Качество видео: WEB-DLRip
Перевод: Одноголосый любительский
Субтитры: Отсутствуют
Видео: AVC/H.264, 1280х720, ~1800 Kbps
Аудио: AAC, 2 ch, 128 Kbps
Общее
Полное имя : D: 1UPНе двигайся (2013).mp4
Формат : MPEG-4
Профиль формата : Base Media
Идентификатор кодека : isom (isom/iso2/avc1/mp41)
Размер файла : 190 Мбайт
Продолжительность : 13 м. 56 с.
Общий поток : 1 910 Кбит/сек
Программа кодирования : Lavf54.59.106
Видео
Идентификатор : 1
Формат : AVC
Формат/Информация : Advanced Video Codec
Профиль формата : High@L3.1
Настройки формата : CABAC/4 Ref Frames
Параметр CABAC формата : Да
Параметр RefFrames формата : 4 кадра
Идентификатор кодека : avc1
Идентификатор кодека/Информация : Advanced Video Coding
Продолжительность : 13 м. 56 с.
Битрейт : 1 800 Кбит/сек
Ширина : 1 280 пикселей
Высота : 720 пикселей
Соотношение сторон : 16: 9
Режим частоты кадров : Постоянный
Частота кадров : 25, 000 кадров/сек
Цветовое пространство : YUV
Субдискретизация насыщенности : 4: 2: 0
Битовая глубина : 8 бит
Тип развёртки : Прогрессивная
Бит/(Пиксели*Кадры) : 0.078
Размер потока : 177 Мбайт (93%)
Библиотека кодирования : x264 core 129
Настройки программы : cabac=1/ref=3/deblock=1: 0: 0/analyse=0x3: 0x113/me=hex/subme=7/psy=1/psy_rd=1.00: 0.00/mixed_ref=1/me_range=16/chroma_me=1/trellis=1/8x8dct=1/cqm=0/deadzone=21, 11/fast_pskip=1/chroma_qp_offset=-2/threads=24/lookahead_threads=4/sliced_threads=0/nr=0/decimate=1/interlaced=0/bluray_compat=0/constrained_intra=0/bframes=3/b_pyramid=2/b_adapt=1/b_bias=0/direct=1/weightb=1/open_gop=0/weightp=2/keyint=250/keyint_min=25/scenecut=40/intra_refresh=0/rc_lookahead=40/rc=abr/mbtree=1/bitrate=1800/ratetol=1.0/qcomp=0.60/qpmin=0/qpmax=69/qpstep=4/ip_ratio=1.40/aq=1: 1.00
Codec configuration box : avcC
Аудио
Идентификатор : 2
Формат : AAC LC
Формат/Информация : Advanced Audio Codec Low Complexity
Идентификатор кодека : mp4a-40-2
Продолжительность : 13 м. 56 с.
Duration_LastFrame : -19 мс.
Вид битрейта : Постоянный
Битрейт : 128 Кбит/сек
Каналы : 2 канала
Channel layout : L R
Частота : 44, 1 КГц
Частота кадров : 43, 066 кадра/сек (1024 SPF)
Метод сжатия : С потерями
Размер потока : 12, 7 Мбайт (7%)
Default : Да
Alternate group : 1
Скриншоты:


Все одноименные релизы в Клубе
Время раздачи: С 8 до 22 мск (до появления первых 3-5 скачавших)
 
Уважаемый посетитель, Вы зашли на сайт как незарегистрированный пользователь. Мы рекомендуем Вам зарегистрироваться либо зайти на сайт под своим именем.

Другие новости по теме:

  • Том Рат | Ешь, двигайся, спи. Как повседневные решения влияют на здоровье и долголетие (2014) [FB2, PDF] скачать через торрент бесплатно
  • Том Рат | Ешь, двигайся, спи (2018) [MP3]


  • Информация
    Посетители, находящиеся в группе Гости, не могут оставлять комментарии в данной новости.
    Главная страница | Регистрация | Добавить новость | Новое на сайте Copyright © 2019. bolt.mmix.club All Rights Reserved