Подписывайся на наш канал в Telegram https://t.me/torrentok и получи доступ к торрентам без ограничений!
. bolt.mmix.club
Авторские права
con...@...Показать
Вход на сайт
Логин:
Пароль:
 
Навигация по сайту
Популярные статьи

Торрент трекер | Скачать торрент | Скачать через Торрент | Скачать торрент бесплатно | Скачать торрент без регистрации КПК и мобильные торрент скачать Похищенный (2020) WEBRip [H.264] (серии 1-2 из 2) [MP4|1920x1080p] торрент скачать бесплатно

Похищенный (2020) WEBRip [H.264] (серии 1-2 из 2) [MP4|1920x1080p] торрент скачать бесплатно

КПК и мобильные торрент скачать
Похищенный (2020) WEBRip [H.264] (серии 1-2 из 2) [MP4|1920x1080p]Производство: Россия | Яуза-Фильм
Жанр: Детектив, криминал
Режиссер: Владимир Фатьянов
Актеры: Александра Лупашко, Дмитрий Паламарчук, Дмитрий Мазуров, Ксения Щербакова, Борис Щербаков, Наталья Бортникова, Евгений Хазов, Виктор Овсянников, Олег Филипчик, Артём Крестников

Описание

Спустя год после смерти мужа Нина находит в его вещах флешку с видеозаписью мальчика, который в объектив просит маму сделать то, что требуют похитители. Поиски этого мальчика приводят Нину к тайнам, которые скрывал её муж последние годы. Идти по дороге, ведущей к правде, оказывается и страшно, и грустно, и в то же время увлекательно. Тем более, что у героини вскоре появляется попутчик...
Дата российской премьеры: 16 октября 2020
Продолжительность: ~00: 45: 00 серия
Качество видео: WEBRip
Субтитры: Отсутствуют
Видео: AVC/H.264, 1920x1080, ~2905 kbps
Аудио: AAC, 2 ch, 128 kbps - русский
General
Complete name : Pohischenniy_2020_WEBRip_1080p_02.mp4
Format : MPEG-4
Format profile : Base Media
Codec ID : isom (isom/iso2/avc1/mp41)
File size : 1 005 MiB
Duration : 46 min 13 s
Overall bit rate : 3 038 kb/s
Writing application : Lavf58.20.100
Video
ID : 1
Format : AVC
Format/Info : Advanced Video Codec
Format profile : High@L4
Format settings : CABAC/3 Ref Frames
Format settings, CABAC : Yes
Format settings, ReFrames : 3 frames
Codec ID : avc1
Codec ID/Info : Advanced Video Coding
Duration : 46 min 13 s
Duration_FirstFrame : -40 ms
Bit rate : 2 905 kb/s
Width : 1 920 pixels
Height : 1 080 pixels
Display aspect ratio : 16: 9
Frame rate mode : Variable
Frame rate : 25.000 FPS
Minimum frame rate : 25.000 FPS
Maximum frame rate : 25.014 FPS
Color space : YUV
Chroma subsampling : 4: 2: 0
Bit depth : 8 bits
Scan type : Progressive
Bits/(Pixel*Frame) : 0.056
Stream size : 960 MiB (96%)
Color range : Limited
Color primaries : BT.709
Transfer characteristics : BT.709
Matrix coefficients : BT.709
Codec configuration box : avcC
Audio
ID : 2
Format : AAC LC
Format/Info : Advanced Audio Codec Low Complexity
Codec ID : mp4a-40-2
Duration : 46 min 13 s
Bit rate mode : Constant
Bit rate : 128 kb/s
Channel(s) : 2 channels
Channel layout : L R
Sampling rate : 44.1 kHz
Frame rate : 43.066 FPS (1024 SPF)
Compression mode : Lossy
Stream size : 42.3 MiB (4%)
Default : Yes
Alternate group : 1
Скриншоты:


Все одноименные релизы в Клубе
Время раздачи: 24/7 (до появления первых 3-5 скачавших)
 
Уважаемый посетитель, Вы зашли на сайт как незарегистрированный пользователь. Мы рекомендуем Вам зарегистрироваться либо зайти на сайт под своим именем.

Другие новости по теме:

  • Похищенный / Kidnapped (1971) DVDRip скачать через торрент бесплатно
  • Похищенный / Kidnapped (1960) DVDRip [H.264] скачать через торрент бесплатно
  • Похищенный / Kidnapped (1995) DVDRip [H.264] скачать через торрент бесплатно
  • Похищенный сын: История Тиффани Рубин / Taken from Me: The Tiffany Rubin Story (2011) HDTV [H.264 / 1080i]
  • Похищенный / Kidnappet / Lost in Africa (2010) DVDRip [H.264] [DA / EN, DA Sub]


  • Информация
    Посетители, находящиеся в группе Гости, не могут оставлять комментарии в данной новости.
    Главная страница | Регистрация | Добавить новость | Новое на сайте Copyright © 2019. bolt.mmix.club All Rights Reserved