Подписывайся на наш канал в Telegram https://t.me/torrentok и получи доступ к торрентам без ограничений!
. bolt.mmix.club
Авторские права
con...@...Показать
Вход на сайт
Логин:
Пароль:
 
Навигация по сайту
Популярные статьи

Торрент трекер | Скачать торрент | Скачать через Торрент | Скачать торрент бесплатно | Скачать торрент без регистрации КПК и мобильные торрент скачать Случайная смерть анархиста (2006) WEBRip [MP4|1920x1080] Спектакль торрент скачать бесплатно

Случайная смерть анархиста (2006) WEBRip [MP4|1920x1080] Спектакль торрент скачать бесплатно

КПК и мобильные торрент скачать
Случайная смерть анархиста (2006) WEBRip [MP4|1920x1080] СпектакльПроизводство: Россия | Московский академический Театр Сатиры
Жанр: Комедия
Режиссер: Михаил Борисов
Актеры: Фёдор Добронравов, Светлана Малюкова, Валерий гурьев, Сергей Колповский, Евгений Толоконников, Константин Карасик, Олег Кассин

Описание

В спектакле сам анархист, которого подозревали в совершении террористического преступления на миланском вокзале, на сцену так и не выходит. Всем известен лишь тот факт, что он погиб: или выбросился из окна сам, или ему кто-нибудь помог. Начальство полицейского пытается умолчать и замять неприятную ситуацию. И как раз в этот время в участке появляется человек, которого совсем недавно выпустили из сумасшедшего дома. Он практически гипнотизирует всех служителей порядка и дурит им головы. Выдавая себя за судью главный герой допрашивает всех полицейских, откровенно издеваясь над ними. Сумасшедший постоянно изменяет свою внешность: наклеивает усы, примеряет нелепый парик, появляется с деревянной ногой. Все эти события, переодевания, происходящие на фоне смерти анархиста, добавляют спектаклю немного черного юмора.
Возраст: 16+ (зрителям, достигшим 16 лет)
Продолжительность: 02: 09: 59
Качество видео: WEBRip
Субтитры: Отсутствуют
Видео: AVC/H.264, 1920x1080, ~1515 kbps
Аудио: AAC, 2 ch, 128 kbps - русский
General
Complete name : Случайная_смерть_анархиста_Спектакль_Театра_сатиры_1080p.mp4
Format : MPEG-4
Format profile : Base Media
Codec ID : isom (isom/iso2/avc1/mp41)
File size : 1.50 GiB
Duration : 2 h 9 min
Overall bit rate : 1 649 kb/s
Writing application : Lavf56.15.100
Video
ID : 1
Format : AVC
Format/Info : Advanced Video Codec
Format profile : High@L4
Format settings : CABAC/3 Ref Frames
Format settings, CABAC : Yes
Format settings, ReFrames : 3 frames
Codec ID : avc1
Codec ID/Info : Advanced Video Coding
Duration : 2 h 9 min
Bit rate : 1 515 kb/s
Width : 1 920 pixels
Height : 1 080 pixels
Display aspect ratio : 16: 9
Frame rate mode : Constant
Frame rate : 25.000 FPS
Color space : YUV
Chroma subsampling : 4: 2: 0
Bit depth : 8 bits
Scan type : Progressive
Bits/(Pixel*Frame) : 0.029
Stream size : 1.38 GiB (92%)
Writing library : x264 core 155 r2901 7d0ff22
Color range : Limited
Color primaries : BT.709
Transfer characteristics : BT.709
Matrix coefficients : BT.709
Codec configuration box : avcC
Audio
ID : 2
Format : AAC LC
Format/Info : Advanced Audio Codec Low Complexity
Codec ID : mp4a-40-2
Duration : 2 h 9 min
Bit rate mode : Constant
Bit rate : 128 kb/s
Channel(s) : 2 channels
Channel layout : L R
Sampling rate : 44.1 kHz
Frame rate : 43.066 FPS (1024 SPF)
Compression mode : Lossy
Stream size : 119 MiB (8%)
Language : English
Default : Yes
Alternate group : 1
 
Уважаемый посетитель, Вы зашли на сайт как незарегистрированный пользователь. Мы рекомендуем Вам зарегистрироваться либо зайти на сайт под своим именем.

Другие новости по теме:

  • Марина Серова | Продается случайная смерть (2017) [FB2]


  • Информация
    Посетители, находящиеся в группе Гости, не могут оставлять комментарии в данной новости.
    Главная страница | Регистрация | Добавить новость | Новое на сайте Copyright © 2019. bolt.mmix.club All Rights Reserved