Подписывайся на наш канал в Telegram https://t.me/torrentok и получи доступ к торрентам без ограничений!
. bolt.mmix.club
Авторские права
con...@...Показать
Вход на сайт
Логин:
Пароль:
 
Навигация по сайту
Популярные статьи

Торрент трекер | Скачать торрент | Скачать через Торрент | Скачать торрент бесплатно | Скачать торрент без регистрации КПК и мобильные торрент скачать Джим Джефферис: Нетерпимый / Jim Jefferies: Intolerant (2020) WEB-DLRip [H.264] [MP4|1920x1048] [VO] [AD] торрент скачать бесплатно

Джим Джефферис: Нетерпимый / Jim Jefferies: Intolerant (2020) WEB-DLRip [H.264] [MP4|1920x1048] [VO] [AD] торрент скачать бесплатно

КПК и мобильные торрент скачать
Джим Джефферис: Нетерпимый / Jim Jefferies: Intolerant (2020) WEB-DLRip [H.264] [MP4|1920x1048] [VO] [AD]Телекомпания: Netflix
Жанр: Телепередача, комедия
Режиссер: Скотт Забильски
Участники: Джим Джефферис

Описание

Джеффрис в привычно крутой для себя манере демонстрирует свою непереносимость к тупостям окружающего мира, несправедливостям и тому, что его невероятно бесит.

Премьера (мир): 7 July 2020
Релиз от: Rumble
Продолжительность: 01: 06: 34
Качество видео: WEB-DLRip
Перевод: Одноголосый любительский
Субтитры: отсутствуют
Реклама: текстовая
Видео: AVC/H.264, 1920x1048, ~4435 Kbps
Аудио: AAC, 2 ch, 210 Kbps
Общее
Полное имя : D: NOVOEДжим Джеффрис - Нетерпимый 2020 Озвучка Rumble.mp4
Формат : MPEG-4
Профиль формата : Base Media
Идентификатор кодека : isom (isom/iso2/avc1/mp41)
Размер файла : 2, 16 Гбайт
Продолжительность : 1 ч. 6 м.
Общий поток : 4 649 Кбит/сек
Программа кодирования : Lavf58.29.100
Видео
Идентификатор : 1
Формат : AVC
Формат/Информация : Advanced Video Codec
Профиль формата : High@L4
Настройки формата : CABAC/4 Ref Frames
Параметр CABAC формата : Да
Параметр RefFrames формата : 4 кадра
Параметр GOP формата : M=1, N=72
Идентификатор кодека : avc1
Идентификатор кодека/Информация : Advanced Video Coding
Продолжительность : 1 ч. 6 м.
Битрейт : 4 435 Кбит/сек
Ширина : 1 920 пикселей
Высота : 1 048 пикселей
Соотношение сторон : 1, 85: 1
Режим частоты кадров : Переменный
Частота кадров : 23, 976 (23976/1000) кадра/сек
Цветовое пространство : YUV
Субдискретизация насыщенности : 4: 2: 0
Битовая глубина : 8 бит
Тип развёртки : Прогрессивная
Бит/(Пиксели*Кадры) : 0.092
Размер потока : 2, 06 Гбайт (95%)
Дата пометки : UTC 2020-07-26 10: 43: 24
Codec configuration box : avcC
Аудио
Идентификатор : 2
Формат : AAC LC
Формат/Информация : Advanced Audio Codec Low Complexity
Идентификатор кодека : mp4a-40-2
Продолжительность : 1 ч. 6 м.
Вид битрейта : Постоянный
Битрейт : 210 Кбит/сек
Каналы : 2 канала
Channel layout : L R
Частота : 44, 1 КГц
Частота кадров : 43, 066 кадра/сек (1024 SPF)
Метод сжатия : С потерями
Размер потока : 99, 9 Мбайт (5%)
Default : Да
Alternate group : 1
Дата пометки : UTC 2020-07-26 10: 43: 24
Скриншоты:


Все одноименные релизы в Клубе
Время раздачи: 24/7 (до появления первых 3-5 скачавших)
 
Уважаемый посетитель, Вы зашли на сайт как незарегистрированный пользователь. Мы рекомендуем Вам зарегистрироваться либо зайти на сайт под своим именем.

Другие новости по теме:

  • Джим Баттон / Джим Кнопка / Джим Пуговка / Jim Knopf / Jim Button (2000 – 2001) TVRip (Сезон 1-2, серий 52)
  • Джим Батчер | Собрание произведений [44 книги] (2009-2014) [FB2]
  • Джим Роджерс | Сделайте ваших детей успешными (2013) [PDF, EPUB] скачать через торрент бесплатно
  • Джим Коллинз, Мортен Хансен | Великие по собственному выбору (2013) [PDF, DOC, FB2] скачать через торрент бесплатно
  • Джим Коллинз | От хорошего к великому. Почему одни компании совершают прорыв, а другие нет (2002) [PDF, DOC, FB2, EPUB] скачать через торрент бесплатно
  • Джим Кэмп | Сначала скажите «нет». Секреты профессиональных переговорщиков (2007) [FB2] скачать через торрент бесплатно
  • Джим Лоэр, Тони Шварц | Жизнь на полной мощности! Управление энергией – ключ к высокой эффективности, здоровью и счастью (2014) [MP3]
  • Г. Авело | Татуированная графиня или чрезвычайное приключение сыщика Джим-Джо (2016) [FB2]


  • Информация
    Посетители, находящиеся в группе Гости, не могут оставлять комментарии в данной новости.
    Главная страница | Регистрация | Добавить новость | Новое на сайте Copyright © 2019. bolt.mmix.club All Rights Reserved