Подписывайся на наш канал в Telegram https://t.me/torrentok и получи доступ к торрентам без ограничений!
. bolt.mmix.club
Авторские права
con...@...Показать
Вход на сайт
Логин:
Пароль:
 
Навигация по сайту
Популярные статьи

Торрент трекер | Скачать торрент | Скачать через Торрент | Скачать торрент бесплатно | Скачать торрент без регистрации КПК и мобильные торрент скачать Однажды в Чукурова / Bir Zamanlar Cukurova (2019) WEB-DLRip [H.264] (сезон 2, серии 1-28 из 28) Котова [MP4|1920x1080] торрент скачать бесплатно

Однажды в Чукурова / Bir Zamanlar Cukurova (2019) WEB-DLRip [H.264] (сезон 2, серии 1-28 из 28) Котова [MP4|1920x1080] торрент скачать бесплатно

КПК и мобильные торрент скачать
Однажды в Чукурова / Bir Zamanlar Cukurova (2019) WEB-DLRip [H.264] (сезон 2, серии 1-28 из 28) Котова [MP4|1920x1080]Производство: Турция/TimsB
Жанр: Драма
Режиссер: Мурат Сарачоглу
Актеры: Мурат Уналмыш, Хилаль Алтынбилек, Угур Гюнеш, Вахиде Перчин, Сибель Ташчыоглу, Бюлент Полат, Тургай Айдын

Описание

Сериал является ремейком американского фильма Дни жатвы/Days of Heaven (1978). Действия в сериале происходят с 70-х годов прошлого века по сей день. Зюлейха выходит замуж за Демира, чтобы ее любимый мог жить, ведь он убил человека ради любви, и теперь им пришлось пуститься в бега. Однако в сериале ведется речь не только о двух разлученных влюбленных, но и о битве Хюнкар, которая расправила крылья, чтобы защитить своего единственного сына Демира. А Демир готов на все, чтобы удержать рядом с собой любимую женщину – Зюлейху. На бескрайних просторах Чукурова влюбленным придется пройти через суровые испытания...

Продолжительность: ~02: 30: 00 серия
Качество видео: WEB-DLRip
Перевод: Одноголосый любительский (Ирина Котова)
Язык озвучки: Русский
Субтитры: отсутствуют
Видео: AVC/H.264, 1920x1080, ~1476 kbps
Аудио: AAC, 2 ch, 128 kbps
General
Complete name : J: Chukurova.s02.WEB-DLRip1080pChukurova.s02.e36.WEB-DLRip1080p.mp4
Format : MPEG-4
Format profile : Base Media
Codec ID : isom (isom/avc1/iso6)
File size : 1.58 GiB
Duration : 2 h 20 min
Overall bit rate mode : Variable
Overall bit rate : 1 608 kb/s
Encoded date : UTC 2019-09-21 09: 47: 53
Tagged date : UTC 2019-09-21 09: 47: 53
Writing application : My MP4Box GUI 0.6.0.6 http://my-mp4box-gui.zymichost.com
Video
ID : 1
Format : AVC
Format/Info : Advanced Video Codec
Format profile : High@L4
Format settings : CABAC/3 Ref Frames
Format settings, CABAC : Yes
Format settings, Reference fra : 3 frames
Codec ID : avc1
Codec ID/Info : Advanced Video Coding
Duration : 2 h 20 min
Bit rate : 1 477 kb/s
Maximum bit rate : 7 430 kb/s
Width : 1 920 pixels
Height : 1 080 pixels
Display aspect ratio : 16: 9
Frame rate mode : Constant
Frame rate : 25.000 FPS
Color space : YUV
Chroma subsampling : 4: 2: 0
Bit depth : 8 bits
Scan type : Progressive
Bits/(Pixel*Frame) : 0.028
Stream size : 1.45 GiB (92%)
Title : 36_track1.h264
Writing library : x264 core 155 r2901 7d0ff22
Encoded date : UTC 2019-09-21 09: 47: 53
Tagged date : UTC 2019-09-21 09: 51: 23
Color range : Limited
Color primaries : BT.709
Transfer characteristics : BT.709
Matrix coefficients : BT.709
Codec configuration box : avcC
Audio
ID : 2
Format : AAC LC
Format/Info : Advanced Audio Codec Low Complexity
Codec ID : mp4a-40-2
Duration : 2 h 20 min
Bit rate mode : Variable
Bit rate : 128 kb/s
Maximum bit rate : 138 kb/s
Channel(s) : 2 channels
Channel layout : L R
Sampling rate : 44.1 kHz
Frame rate : 43.066 FPS (1024 SPF)
Compression mode : Lossy
Stream size : 129 MiB (8%)
Title : 36ð_track2.aac
Encoded date : UTC 2019-09-21 09: 50: 40
Tagged date : UTC 2019-09-21 09: 51: 23
Скриншоты:


Все одноименные релизы в Клубе
Время раздачи: с 11: 00 до 3: 00 (до появления первых 3-5 скачавших) (до появления первых 3-5 скачавших)
 
Уважаемый посетитель, Вы зашли на сайт как незарегистрированный пользователь. Мы рекомендуем Вам зарегистрироваться либо зайти на сайт под своим именем.

Другие новости по теме:

  • Однажды в Чукурова / Bir Zamanlar Cukurova (2018) WEB-DLRip [H.264] (сезон 1, серии 1-35 из 35) Гайдаржи, Котова [MP4|1920x1080]


  • Информация
    Посетители, находящиеся в группе Гости, не могут оставлять комментарии в данной новости.
    Главная страница | Регистрация | Добавить новость | Новое на сайте Copyright © 2019. bolt.mmix.club All Rights Reserved