Подписывайся на наш канал в Telegram https://t.me/torrentok и получи доступ к торрентам без ограничений!
. bolt.mmix.club
Авторские права
con...@...Показать
Вход на сайт
Логин:
Пароль:
 
Навигация по сайту
Популярные статьи

Торрент трекер | Скачать торрент | Скачать через Торрент | Скачать торрент бесплатно | Скачать торрент без регистрации КПК и мобильные торрент скачать Форпост / The Outpost (2020) WEB-DLRip [H.264] [MVO] [MP4|1920x1040] торрент скачать бесплатно

Форпост / The Outpost (2020) WEB-DLRip [H.264] [MVO] [MP4|1920x1040] торрент скачать бесплатно

КПК и мобильные торрент скачать
Форпост / The Outpost (2020) WEB-DLRip [H.264] [MVO] [MP4|1920x1040]Производство: США, Болгария/Millennium Media, York Films
Жанр: Боевик, военный, драма, история
Режиссер: Род Лури
Продюсер: Марк Фридман, Джеффри Гринштейн, Пол Тэймеси
Актеры: Скотт Иствуд, Орландо Блум, Калеб Лэндри Джонс, Майло Гибсон, Бобби Локвуд, Селина Синден, Джейкоб Скипио, Джек Кеси, Тейлор Джон Смит, Джеймс Джаггер

Описание

Небольшая группа солдат США сражается в Афганистане против нескольких сотен талибов.

Возраст: 18+ (зрителям, достигшим 18 лет. запрещено для детей)
Рейтинг MPAA: R (лицам до 17 лет обязательно присутствие взрослого)
Дата мировой премьеры: 29 июня 2020
Дата российской премьеры: 23 июля 2020
Продолжительность: 02: 03: 11
Качество видео: WEB-DLRip
Перевод: Многоголосый профессиональный (HDrezka Studio)
Субтитры: Русские (Forced)
Видео: AVC/H.264, 1920x1040, ~2500 kbps
Аудио: AAC, 2 ch, 192 Kbps - русский -Присутствует ненормативная лексика! Общее
Полное имя : The.Outpost.2020.WEB-DL.1080p.mp4
Формат : MPEG-4
Профиль формата : Base Media
Идентификатор кодека : isom (isom/iso2/avc1/mp41)
Размер файла : 2, 32 Гбайт
Продолжительность : 2 ч. 3 м.
Режим общего битрейта : Переменный
Общий поток : 2696 Кбит/сек
HDVideo : Yes
Видео
Идентификатор : 1
Формат : AVC
Формат/Информация : Advanced Video Codec
Профиль формата : High@L4.1
Настройки формата : CABAC/4 Ref Frames
Параметр CABAC формата : Да
Параметр RefFrames формата : 4 кадра
Идентификатор кодека : avc1
Идентификатор кодека/Информация : Advanced Video Coding
Продолжительность : 2 ч. 3 м.
Битрейт : 2500 Кбит/сек
Ширина : 1920 пикселей
Высота : 1040 пикселей
Соотношение сторон : 1, 85: 1
Режим частоты кадров : Переменный
Частота кадров : 23, 976 (23976/1000) кадра/сек
Минимальная частота кадров : 23, 952 кадра/сек
Максимальная частота кадров : 24, 000 кадра/сек
Цветовое пространство : YUV
Субдискретизация насыщенности : 4: 2: 0
Битовая глубина : 8 бит
Тип развёртки : Прогрессивная
Бит/(Пиксели*Кадры) : 0.052
Размер потока : 2, 15 Гбайт (93%)
Библиотека кодирования : x264 core 152 r2851M ba24899
Настройки программы : cabac=1/ref=4/deblock=1: -1: -1/analyse=0x3: 0x113/me=umh/subme=9/psy=1/psy_rd=1.00: 0.15/mixed_ref=1/me_range=24/chroma_me=1/trellis=2/8x8dct=1/cqm=0/deadzone=21, 11/fast_pskip=1/chroma_qp_offset=-3/threads=16/lookahead_threads=4/sliced_threads=0/nr=0/decimate=1/interlaced=0/bluray_compat=0/constrained_intra=0/bframes=3/b_pyramid=2/b_adapt=2/b_bias=0/direct=3/weightb=1/open_gop=0/weightp=2/keyint=250/keyint_min=25/scenecut=40/intra_refresh=0/rc_lookahead=50/rc=2pass/mbtree=1/bitrate=2500/ratetol=1.0/qcomp=0.60/qpmin=0/qpmax=69/qpstep=4/cplxblur=20.0/qblur=0.5/vbv_maxrate=31250/vbv_bufsize=31250/nal_hrd=none/filler=0/ip_ratio=1.40/aq=3: 1.00
Codec configuration box : avcC
Аудио
Идентификатор : 2
Формат : AAC LC
Формат/Информация : Advanced Audio Codec Low Complexity
Идентификатор кодека : mp4a-40-2
Продолжительность : 2 ч. 3 м.
Вид битрейта : Постоянный
Битрейт : 192 Кбит/сек
Каналы : 2 канала
Channel layout : L R
Частота : 48, 0 КГц
Частота кадров : 46, 875 кадров/сек (1024 SPF)
Метод сжатия : С потерями
Размер потока : 169 Мбайт (7%)
Язык : Russian
Default : Да
AlternateGroup/String : 1
Текст
Идентификатор : 3
Формат : Timed Text
Режим смешивания : sbtl
Идентификатор кодека : tx3g
Продолжительность : 1 ч. 54 м.
Вид битрейта : Переменный
Битрейт : 4 бит/сек
Размер потока : 3, 71 Кбайт (0%)
Язык : Russian
Default : Да
Forced : Нет
AlternateGroup/String : 3Скриншоты:

Все одноименные релизы в Клубе
Время раздачи: 24/7 (круглосуточно) (до появления первых 3-5 скачавших)
 
Уважаемый посетитель, Вы зашли на сайт как незарегистрированный пользователь. Мы рекомендуем Вам зарегистрироваться либо зайти на сайт под своим именем.

Другие новости по теме:

  • Форпост / The Outpost (2020) WEB-DL [H.264 / 1080p-LQ] [MVO]
  • Форпост / The Outpost (2020) WEBRip [H.265 / 2160p-LQ] [4K, SDR, 8-bit] [MVO]
  • Форпост / The Outpost (2020) WEB-DL [H.264 / 720p] [MVO]
  • Форпост / The Outpost (2020) WEBRip [MVO] [AD]
  • Форпост / The Outpost (2020) WEBRip [H.264 / 1080p-LQ] [MVO] [AD]
  • Форпост / The Outpost (2020) WEB-DLRip [VO] [AD]
  • Форпост / The Outpost (2020) WEB-DL [H.264 / 1080p-LQ] [EN / EN Sub]


  • Информация
    Посетители, находящиеся в группе Гости, не могут оставлять комментарии в данной новости.
    Главная страница | Регистрация | Добавить новость | Новое на сайте Copyright © 2019. bolt.mmix.club All Rights Reserved