Подписывайся на наш канал в Telegram https://t.me/torrentok и получи доступ к торрентам без ограничений!
. bolt.mmix.club
Авторские права
con...@...Показать
Вход на сайт
Логин:
Пароль:
 
Навигация по сайту
Популярные статьи

Торрент трекер | Скачать торрент | Скачать через Торрент | Скачать торрент бесплатно | Скачать торрент без регистрации КПК и мобильные торрент скачать Бессмертная гвардия / The Old Guard (2020) WEB-DLRip [H.264] [MP4|1920x804] торрент скачать бесплатно

Бессмертная гвардия / The Old Guard (2020) WEB-DLRip [H.264] [MP4|1920x804] торрент скачать бесплатно

КПК и мобильные торрент скачать
Бессмертная гвардия / The Old Guard (2020) WEB-DLRip [H.264] [MP4|1920x804]Производство: США/Denver and Delilah Productions, Dune Films, Image Comics
Жанр: Фэнтези, боевик
Режиссер: Джина Принс-Байтвуд
Продюсер: Марк Эванс, Дэна Голдберг, Дон Грэйнджер
Актеры: Шарлиз Терон, Кики Лэйн, Маттиас Шонартс, Марван Кензари, Лука Маринелли, Чиветель Эджиофор, Гарри Меллинг, Вероника Нго, Наташа Карам, Метте Таули

Описание

Группа бессмертных воинов из разных эпох на протяжении веков сражается бок о бок под командованием Энди, некогда известной как Андромаха из Скифии. Однажды они узнают о существовании нового бессмертного.

Рейтинг MPAA: R (лицам до 17 лет обязательно присутствие взрослого)
Дата мировой премьеры: 10 июля 2020
Продолжительность: 02: 05: 36
Качество видео: WEB-DLRip
Перевод: Дублированный (Пифагор)
Субтитры: Русские (Forced)
Видео: AVC/H.264, 1920x804, ~2500 kbps
Аудио : AAC, 2 ch, 192 Kbps - русскийОбщее
Полное имя : The.Old.Guard.2020.WEB-DL.1080p.mp4
Формат : MPEG-4
Профиль формата : Base Media
Идентификатор кодека : isom (isom/iso2/avc1/mp41)
Размер файла : 2, 37 Гбайт
Продолжительность : 2 ч. 5 м.
Режим общего битрейта : Переменный
Общий поток : 2696 Кбит/сек
HDVideo : Yes
Видео
Идентификатор : 1
Формат : AVC
Формат/Информация : Advanced Video Codec
Профиль формата : High@L4.1
Настройки формата : CABAC/4 Ref Frames
Параметр CABAC формата : Да
Параметр RefFrames формата : 4 кадра
Идентификатор кодека : avc1
Идентификатор кодека/Информация : Advanced Video Coding
Продолжительность : 2 ч. 5 м.
Битрейт : 2500 Кбит/сек
Ширина : 1920 пикселей
Высота : 804 пикселя
Соотношение сторон : 2, 40: 1
Режим частоты кадров : Постоянный
Частота кадров : 24, 000 кадра/сек
Цветовое пространство : YUV
Субдискретизация насыщенности : 4: 2: 0
Битовая глубина : 8 бит
Тип развёртки : Прогрессивная
Бит/(Пиксели*Кадры) : 0.067
Размер потока : 2, 19 Гбайт (93%)
Библиотека кодирования : x264 core 152 r2851M ba24899
Настройки программы : cabac=1/ref=4/deblock=1: -1: -1/analyse=0x3: 0x113/me=umh/subme=9/psy=1/psy_rd=1.00: 0.15/mixed_ref=1/me_range=24/chroma_me=1/trellis=2/8x8dct=1/cqm=0/deadzone=21, 11/fast_pskip=1/chroma_qp_offset=-3/threads=16/lookahead_threads=4/sliced_threads=0/nr=0/decimate=1/interlaced=0/bluray_compat=0/constrained_intra=0/bframes=3/b_pyramid=2/b_adapt=2/b_bias=0/direct=3/weightb=1/open_gop=0/weightp=2/keyint=250/keyint_min=25/scenecut=40/intra_refresh=0/rc_lookahead=50/rc=2pass/mbtree=1/bitrate=2500/ratetol=1.0/qcomp=0.60/qpmin=0/qpmax=69/qpstep=4/cplxblur=20.0/qblur=0.5/vbv_maxrate=31250/vbv_bufsize=31250/nal_hrd=none/filler=0/ip_ratio=1.40/aq=3: 1.00
Codec configuration box : avcC
Аудио
Идентификатор : 2
Формат : AAC LC
Формат/Информация : Advanced Audio Codec Low Complexity
Идентификатор кодека : mp4a-40-2
Продолжительность : 2 ч. 5 м.
Вид битрейта : Постоянный
Битрейт : 192 Кбит/сек
Каналы : 2 канала
Channel layout : L R
Частота : 48, 0 КГц
Частота кадров : 46, 875 кадров/сек (1024 SPF)
Метод сжатия : С потерями
Размер потока : 173 Мбайт (7%)
Язык : Russian
Default : Да
AlternateGroup/String : 1
Текст
Идентификатор : 3
Формат : Timed Text
Режим смешивания : sbtl
Идентификатор кодека : tx3g
Продолжительность : 2 ч. 4 м.
Вид битрейта : Переменный
Битрейт : 2 бит/сек
Размер потока : 1, 74 Кбайт (0%)
Язык : Russian
Default : Да
Forced : Нет
AlternateGroup/String : 3Скриншоты:

Все одноименные релизы в Клубе
Время раздачи: 24/7 (круглосуточно) (до появления первых 3-5 скачавших)
 
Уважаемый посетитель, Вы зашли на сайт как незарегистрированный пользователь. Мы рекомендуем Вам зарегистрироваться либо зайти на сайт под своим именем.

Другие новости по теме:

  • Бессмертная гвардия / The Old Guard (2020) UHD WEB-DLRip [H.265 / 2160p] [SDR, 10-bit]
  • Бессмертная гвардия / The Old Guard (2020) WEB-DL [H.265 / 1080р-LQ] [HDR, 10-bit]
  • Бессмертная гвардия / The Old Guard (2020) WEB-DL [H.264 / 720p-LQ]
  • Бессмертная гвардия / The Old Guard (2020) WEB-DL [H.264 / 1080р-LQ]
  • Бессмертная гвардия / The Old Guard (2020) WEBRip [720p] ATV
  • Бессмертная гвардия / The Old Guard (2020) WEB-DL [1080p] ATV


  • Информация
    Посетители, находящиеся в группе Гости, не могут оставлять комментарии в данной новости.
    Главная страница | Регистрация | Добавить новость | Новое на сайте Copyright © 2019. bolt.mmix.club All Rights Reserved