Подписывайся на наш канал в Telegram https://t.me/torrentok и получи доступ к торрентам без ограничений!
. bolt.mmix.club
Авторские права
con...@...Показать
Вход на сайт
Логин:
Пароль:
 
Навигация по сайту
Популярные статьи

Торрент трекер | Скачать торрент | Скачать через Торрент | Скачать торрент бесплатно | Скачать торрент без регистрации КПК и мобильные торрент скачать Любовь на крыше / Cati Kati Ask (2020) HDTV [H.264] (сезон 1, серии 1 из ) SesDizi [MP4|1280x720] (обновляемая) торрент скачать бесплатно

Любовь на крыше / Cati Kati Ask (2020) HDTV [H.264] (сезон 1, серии 1 из ) SesDizi [MP4|1280x720] (обновляемая) торрент скачать бесплатно

КПК и мобильные торрент скачать
Любовь на крыше / Cati Kati Ask (2020) HDTV [H.264] (сезон 1, серии 1 из ) SesDizi [MP4|1280x720] (обновляемая)Производство: Турция/Mia Yapim
Жанр: Романтическая комедия
Режиссер: Барыш Йош
Актеры: Фуркан Андыч, Эзги Шенлер, Йигит Киразджи, Нилай Дениз, Ренан Билек, Бурак Тамдоган, Пелин Озтекин, Бюлент Сейран, Эбру Айкач

Описание

Новый сериал в жанре летней романтической комедии от продюсера сериала Ветреный, который полюбился миллионам. История начинается с приезда двух иностранных гостей в большую и теплую семью. Семья Йылмаз из-за экономических трудностей решает сдать мансарду дома в аренду. Однако у них два условия – холостякам и студентам не сдают! Пути Атеша, который хочет построить новую жизнь, и Ясемин, желающей помочь своей семье, пересекаются при виде объявления о сдаче комнат. Оба претендуют на мансардные комнаты, однако ни один из них из-за условий не может поселиться в этом доме. Первые переговоры проваливаются, но молодые люди придумывают план, по которому смогут снять мансарду. Они решают – раз условия не подходят нам, мы сами подойдем к условиям. Атеш и Ясемин начинают притворяться мужем и женой, они еще не знают, что на выбранном пути, к тому же, изменят жизни Айшен и Демира...

Продолжительность: ~02: 10: 00 серия
Качество видео: HDTV
Перевод: Двуголосый любительский (SesDizi)
Язык озвучки: Русский
Субтитры: отсутствуют
Видео: AVC/H.264, 1280x720, ~1800 kbps
Аудио: AAC, 2 ch, 192 kbps
General
Complete name : J: Lubov.Na.Kryshe.s01.HDTV720p.SesDiziLubov.Na.Kryshe.s01.e01.HDTV720p.SesDizi.mp4
Format : MPEG-4
Format profile : Base Media
Codec ID : isom (isom/iso2/avc1/mp41)
File size : 1.86 GiB
Duration : 2 h 12 min
Overall bit rate mode : Variable
Overall bit rate : 2 001 kb/s
Writing application : Lavf58.20.100
Video
ID : 1
Format : AVC
Format/Info : Advanced Video Codec
Format profile : High@L3.1
Format settings : CABAC/4 Ref Frames
Format settings, CABAC : Yes
Format settings, Reference fra : 4 frames
Codec ID : avc1
Codec ID/Info : Advanced Video Coding
Duration : 2 h 12 min
Bit rate mode : Variable
Bit rate : 1 800 kb/s
Width : 1 280 pixels
Height : 720 pixels
Display aspect ratio : 16: 9
Frame rate mode : Constant
Frame rate : 25.000 FPS
Color space : YUV
Chroma subsampling : 4: 2: 0
Bit depth : 8 bits
Scan type : Progressive
Bits/(Pixel*Frame) : 0.078
Stream size : 1.67 GiB (90%)
Codec configuration box : avcC
Audio
ID : 2
Format : AAC LC
Format/Info : Advanced Audio Codec Low Complexity
Codec ID : mp4a-40-2
Duration : 2 h 12 min
Bit rate mode : Constant
Bit rate : 192 kb/s
Channel(s) : 2 channels
Channel layout : L R
Sampling rate : 44.1 kHz
Frame rate : 43.066 FPS (1024 SPF)
Compression mode : Lossy
Stream size : 182 MiB (10%)
Default : Yes
Alternate group : 1
Скриншоты:


Все одноименные релизы в Клубе
Время раздачи: с 11: 00 до 3: 00 (до появления первых 3-5 скачавших) (до появления первых 3-5 скачавших)
 
Уважаемый посетитель, Вы зашли на сайт как незарегистрированный пользователь. Мы рекомендуем Вам зарегистрироваться либо зайти на сайт под своим именем.

Другие новости по теме:

  • Татьяна Александрова | Домовенок Кузька [Валерий Пигаев, Любовь Поволоцкая] [2010] [MP3]
  • Inuyasha: Toki o Koeru Omoi | Inuyasha the Movie: Affections Touching Across Time | Инуяся: Любовь, превозмогающая время [2001, Movie] BDRip 1050p 10-bit raw+eng
  • Всё, что тебе нужно - это любовь / Luo pao ba ai qing / All You Need Is Love (2015) HDRip [VO]
  • Колдовская любовь / Un amour de sorciere (1997) DVDRip [Н.264]
  • Osake wa Fuufu ni Natte kara | Love is Like a Cocktail | Любовь похожа на коктейль [2017, TV, 14 эп.] BDRip 1080p raw
  • Елена Кучеренко | Спасибо за любовь (2020) [MP3]
  • Nisekoi | Nisekoi: False Love | Притворная любовь | Любовь понарошку [2014, TV, 17 из 20 эп.] BDrip 1080p raw
  • Nisekoi OVA | Nisekoi: False Love | Притворная любовь | Любовь понарошку OVA [2014, OVA, 1 из 2 эп.] DVDrip 480p raw скачать через торрент бесплатно


  • Информация
    Посетители, находящиеся в группе Гости, не могут оставлять комментарии в данной новости.
    Главная страница | Регистрация | Добавить новость | Новое на сайте Copyright © 2019. bolt.mmix.club All Rights Reserved