Подписывайся на наш канал в Telegram https://t.me/torrentok и получи доступ к торрентам без ограничений!
. bolt.mmix.club
Авторские права
con...@...Показать
Вход на сайт
Логин:
Пароль:
 
Навигация по сайту
Популярные статьи

Торрент трекер | Скачать торрент | Скачать через Торрент | Скачать торрент бесплатно | Скачать торрент без регистрации КПК и мобильные торрент скачать Ветреный / Hercai (2019) WEB-DLRip [H.264] (сезон 1-2, серии 1-38 из 38) SesDizi [MP4|1920x1080] торрент скачать бесплатно

Ветреный / Hercai (2019) WEB-DLRip [H.264] (сезон 1-2, серии 1-38 из 38) SesDizi [MP4|1920x1080] торрент скачать бесплатно

КПК и мобильные торрент скачать
Ветреный / Hercai (2019) WEB-DLRip [H.264] (сезон 1-2, серии 1-38 из 38) SesDizi [MP4|1920x1080]Производство: Турция/Mia Yapım
Жанр: Драма
Режиссер: Джем Карджи, Беналь Таири, Барыш Йёш
Актеры: Акын Акынозю, Эбру Шахин, Айда Аксель, Эбрар Айла Демирбилек, Ойя Унустасы, Тансу Ташанлар, Гюльчин Хатыхан, Серхат Тутумлуер, Фериде Четин, Гюльчин Сантыроглу

Описание

Миран Асланбей бизнесмен приехавший из Стамбула в Мидьят. Он предлагает Насуху Шадоглу больше чем деловое партнерство – он просит руку и сердце его внучки Реййан. Однако у главы самой могущественной семьи в этом регионе другие планы – он отдаст за него внучку, но только другую. В то время как Насух пытается приобщить его к своим планам, он не подозревает, что Миран преследует свои цели. Они с бабушкой намереваются отомстить семье Шадоглу за смерть его родителей. Миран женится на Реййан и бросит ее на следующий день, после свадьбы. Только они не учли одно - любовь… Как повлияет на судьбу двух семей, любовь возродившаяся на тысячелетних землях Мидьята? Смогут ли воссоединиться красавец бизнесмен из Стамбула и Реййан, о чьей красоте слагают легенды? Молодых людей влюбившихся с первого же взгляда ждут сложные испытания…

Продолжительность: ~02: 30: 00 серия
Качество видео: WEB-DLRip
Перевод: Двухголосый любительский (SesDizi)
Субтитры: отсутствуют
Видео: AVC/H.264, 1920x1080, ~1567 kbps
Аудио: AAC, 2 ch, 192 kbps - русский
General
Complete name : G: Vetreniy.s01-02.WEB-DLRip1080p.SesDiziVetreniy.s01.e01.WEB-DLRip1080p.SesDizi.mp4
Format : MPEG-4
Format profile : Base Media
Codec ID : isom (isom/avc1/iso6)
File size : 1.86 GiB
Duration : 2 h 30 min
Overall bit rate mode : Variable
Overall bit rate : 1 760 kb/s
Encoded date : UTC 2020-07-07 17: 32: 43
Tagged date : UTC 2020-07-07 17: 32: 43
Writing application : My MP4Box GUI 0.6.0.6 http://my-mp4box-gui.zymichost.com
Video
ID : 1
Format : AVC
Format/Info : Advanced Video Codec
Format profile : High@L4
Format settings : CABAC/3 Ref Frames
Format settings, CABAC : Yes
Format settings, Reference fra : 3 frames
Codec ID : avc1
Codec ID/Info : Advanced Video Coding
Duration : 2 h 30 min
Bit rate : 1 567 kb/s
Maximum bit rate : 6 359 kb/s
Width : 1 920 pixels
Height : 1 080 pixels
Display aspect ratio : 16: 9
Frame rate mode : Constant
Frame rate : 25.000 FPS
Color space : YUV
Chroma subsampling : 4: 2: 0
Bit depth : 8 bits
Scan type : Progressive
Bits/(Pixel*Frame) : 0.030
Stream size : 1.65 GiB (89%)
Title : 1_track1.h264
Writing library : x264 core 155 r2901 7d0ff22
Encoded date : UTC 2020-07-07 17: 32: 43
Tagged date : UTC 2020-07-07 17: 33: 58
Color range : Limited
Color primaries : BT.709
Transfer characteristics : BT.709
Matrix coefficients : BT.709
Codec configuration box : avcC
Audio
ID : 2
Format : AAC LC
Format/Info : Advanced Audio Codec Low Complexity
Codec ID : mp4a-40-2
Duration : 2 h 30 min
Bit rate mode : Variable
Bit rate : 192 kb/s
Maximum bit rate : 223 kb/s
Channel(s) : 2 channels
Channel layout : L R
Sampling rate : 44.1 kHz
Frame rate : 43.066 FPS (1024 SPF)
Compression mode : Lossy
Stream size : 205 MiB (11%)
Title : Vetreniy.s01.e01.2019.L2.WEBRip720p_track2.aac
Encoded date : UTC 2020-07-07 17: 33: 39
Tagged date : UTC 2020-07-07 17: 33: 58
 
Уважаемый посетитель, Вы зашли на сайт как незарегистрированный пользователь. Мы рекомендуем Вам зарегистрироваться либо зайти на сайт под своим именем.

Другие новости по теме:



Информация
Посетители, находящиеся в группе Гости, не могут оставлять комментарии в данной новости.
Главная страница | Регистрация | Добавить новость | Новое на сайте Copyright © 2019. bolt.mmix.club All Rights Reserved