Подписывайся на наш канал в Telegram https://t.me/torrentok и получи доступ к торрентам без ограничений!
. bolt.mmix.club
Авторские права
con...@...Показать
Вход на сайт
Логин:
Пароль:
 
Навигация по сайту
Популярные статьи

Торрент трекер | Скачать торрент | Скачать через Торрент | Скачать торрент бесплатно | Скачать торрент без регистрации КПК и мобильные торрент скачать Противостояние (2017) WEBRip [H.264] (серии 1-4 из 4) [MP4|1920x1080] торрент скачать бесплатно

Противостояние (2017) WEBRip [H.264] (серии 1-4 из 4) [MP4|1920x1080] торрент скачать бесплатно

КПК и мобильные торрент скачать
Противостояние (2017) WEBRip [H.264] (серии 1-4 из 4) [MP4|1920x1080]Производство: Россия, Украина | Star Media
Жанр: Драма, мелодрама
Режиссер: Роман Бровко
Актеры: Фатима Горбенко, Илья Алексеев, Виктория Малекторович, Александр Попов, Никита Пархоменко, Владимир Осадчий, Екатерина Башкина, Виктория Билан, Игорь Рубашкин, Игорь Петрусенко

Описание

Автомобильная авария отбирает у Ирины всё, что у неё было. Её муж погибает на месте, а маленького сына Мишу у Ирины отбирает свекровь – Жанна Кольцова, властная и богатая женщина, так и не принявшая её в семью. Но лишить Ирину родительских прав по закону свекрови не удается. Тогда она подстраивает невестке западню. Иру арестовывают по обвинению в убийстве и отправляют в колонию. Спустя несколько лет Ирина выходит на свободу по УДО. Но с таким клеймом на биографии она не сможет противостоять Кольцовой и восстановить родительские права. Единственный способ вернуть сына – доказать свою невиновность…

Продолжительность: ~00: 47: 00 серия
Качество видео: WEBRip
Субтитры: Отсутствуют
Видео: AVC/H.264, 1920x1080, ~2500 kbps
Аудио: AAC, 2 ch, 128 kbps - русский
General
Complete name : D: Противостояние_2018_WEBRip_1080p_1-4.mp4
Format : MPEG-4
Format profile : Base Media
Codec ID : isom (isom/iso2/avc1/mp41)
File size : 3.42 GiB
Duration : 3 h 9 min
Overall bit rate : 2 637 kb/s
Writing application : Lavf58.20.100
Video
ID : 1
Format : AVC
Format/Info : Advanced Video Codec
Format profile : High@L4
Format settings : CABAC/5 Ref Frames
Format settings, CABAC : Yes
Format settings, ReFrames : 5 frames
Codec ID : avc1
Codec ID/Info : Advanced Video Coding
Duration : 3 h 9 min
Duration_FirstFrame : -33 ms
Bit rate : 2 500 kb/s
Width : 1 920 pixels
Height : 1 080 pixels
Display aspect ratio : 16: 9
Frame rate mode : Variable
Frame rate : 29.970 FPS
Minimum frame rate : 29.970 FPS
Maximum frame rate : 29.990 FPS
Color space : YUV
Chroma subsampling : 4: 2: 0
Bit depth : 8 bits
Scan type : Progressive
Bits/(Pixel*Frame) : 0.039
Stream size : 3.24 GiB (95%)
Writing library : x264 core 155 r2901 7d0ff22
Color range : Limited
Color primaries : BT.709
Transfer characteristics : BT.709
Matrix coefficients : BT.709
Codec configuration box : avcC
Audio
ID : 2
Format : AAC LC
Format/Info : Advanced Audio Codec Low Complexity
Codec ID : mp4a-40-2
Duration : 3 h 9 min
Bit rate mode : Constant
Bit rate : 128 kb/s
Channel(s) : 2 channels
Channel layout : L R
Sampling rate : 44.1 kHz
Frame rate : 43.066 FPS (1024 SPF)
Compression mode : Lossy
Stream size : 174 MiB (5%)
Default : Yes
Alternate group : 1
Скриншоты:


Все одноименные релизы в Клубе
Время раздачи: 24/7 (до появления первых 3-5 скачавших)
 
Уважаемый посетитель, Вы зашли на сайт как незарегистрированный пользователь. Мы рекомендуем Вам зарегистрироваться либо зайти на сайт под своим именем.

Другие новости по теме:

  • Первый мститель: Противостояние / Captain America: Civil War (2016) WEBRip [H.264 / 1080p] [Трейлер] скачать через торрент бесплатно
  • Первый мститель: Противостояние / Captain America: Civil War (2016) WEBRip [H.264 / 1080p] [Трейлер]


  • Информация
    Посетители, находящиеся в группе Гости, не могут оставлять комментарии в данной новости.
    Главная страница | Регистрация | Добавить новость | Новое на сайте Copyright © 2019. bolt.mmix.club All Rights Reserved