Подписывайся на наш канал в Telegram https://t.me/torrentok и получи доступ к торрентам без ограничений!
. bolt.mmix.club
Авторские права
con...@...Показать
Вход на сайт
Логин:
Пароль:
 
Навигация по сайту
Популярные статьи

Торрент трекер | Скачать торрент | Скачать через Торрент | Скачать торрент бесплатно | Скачать торрент без регистрации КПК и мобильные торрент скачать Следствие вели... (05.07.2020) "Вундеркинд" WEBRip [H.264] [MP4|1920x1080] торрент скачать бесплатно

Следствие вели... (05.07.2020) "Вундеркинд" WEBRip [H.264] [MP4|1920x1080] торрент скачать бесплатно

КПК и мобильные торрент скачать
Следствие вели... (05.07.2020) Вундеркинд WEBRip [H.264] [MP4|1920x1080]Производство: Россия | Телекомпания НТВ
Жанр: Документальный, криминал, расследование
Ведущий: Леонид Каневский

Описание

1991 год. В квартире обнаружены отравленные люди - мать и двое ее сыновей. Сыщики выясняют: это не случайность. Произошло хорошо продуманное преступление. Вскоре выясняется, что у каждого из участников этой истории были свои тайны и свои мотивы.

Возраст: 16+ (зрителям, достигшим 16 лет)
Дата российской премьеры: 05 июля 2020
Продолжительность: 00: 44: 04
Качество видео: WEBRip
Субтитры: Отсутствуют
Видео: AVC/H.264, 1920x1080, ~3636 kbps
Аудио: AAC, 2 ch, 128 kbps - русский
General
Complete name : D: 4_TRANZITСледствие вели..._Вундеркинд_05_07_2020_1080p.mp4
Format : MPEG-4
Format profile : Base Media
Codec ID : isom (isom/iso2/avc1/mp41)
File size : 1.16 GiB
Duration : 44 min 4 s
Overall bit rate : 3 769 kb/s
Writing application : Lavf58.20.100
Video
ID : 1
Format : AVC
Format/Info : Advanced Video Codec
Format profile : High@L4
Format settings : CABAC/3 Ref Frames
Format settings, CABAC : Yes
Format settings, ReFrames : 3 frames
Codec ID : avc1
Codec ID/Info : Advanced Video Coding
Duration : 44 min 4 s
Duration_FirstFrame : -40 ms
Bit rate : 3 636 kb/s
Width : 1 920 pixels
Height : 1 080 pixels
Display aspect ratio : 16: 9
Frame rate mode : Variable
Frame rate : 25.000 FPS
Minimum frame rate : 25.000 FPS
Maximum frame rate : 25.014 FPS
Color space : YUV
Chroma subsampling : 4: 2: 0
Bit depth : 8 bits
Scan type : Progressive
Bits/(Pixel*Frame) : 0.070
Stream size : 1.12 GiB (96%)
Color range : Limited
Color primaries : BT.709
Transfer characteristics : BT.709
Matrix coefficients : BT.709
Codec configuration box : avcC
Audio
ID : 2
Format : AAC LC
Format/Info : Advanced Audio Codec Low Complexity
Codec ID : mp4a-40-2
Duration : 44 min 4 s
Bit rate mode : Constant
Bit rate : 128 kb/s
Channel(s) : 2 channels
Channel layout : L R
Sampling rate : 44.1 kHz
Frame rate : 43.066 FPS (1024 SPF)
Compression mode : Lossy
Stream size : 40.4 MiB (3%)
Default : Yes
Alternate group : 1
Скриншоты:


Все одноименные релизы в Клубе
Время раздачи: 24/7 (до появления первых 3-5 скачавших)
 
Уважаемый посетитель, Вы зашли на сайт как незарегистрированный пользователь. Мы рекомендуем Вам зарегистрироваться либо зайти на сайт под своим именем.

Другие новости по теме:

  • Следствие вели... с Леонидом Каневским. Проклятый клад. Выпуск 278 (28.09.2014) SATRip
  • Следствие вели... с Леонидом Каневским. Убийство из милосердия. Выпуск 279 (11.10.2014) SATRip скачать через торрент бесплатно
  • Следствие вели... с Леонидом Каневским. Призрак на колесах. Выпуск 280 (18.10.2014) SATRip скачать через торрент бесплатно
  • Следствие вели... с Леонидом Каневским. Бумеранг. Выпуск 281 (25.10.2014) SATRip
  • Следствие вели... с Леонидом Каневским. Хозяин города. Выпуск 282 (01.11.2014) SATRip скачать через торрент бесплатно
  • Следствие вели... с Леонидом Каневским. Правдоруб. Выпуск 283 (08.11.2014) SATRip скачать через торрент бесплатно
  • Следствие вели... с Леонидом Каневским. Опасный попутчик. Выпуск 284 (15.11.2014) SATRip
  • Следствие вели... с Леонидом Каневским. Старики-разбойники. Выпуск 285 (22.11.2014) SATRip


  • Информация
    Посетители, находящиеся в группе Гости, не могут оставлять комментарии в данной новости.
    Главная страница | Регистрация | Добавить новость | Новое на сайте Copyright © 2019. bolt.mmix.club All Rights Reserved