Подписывайся на наш канал в Telegram https://t.me/torrentok и получи доступ к торрентам без ограничений!
. bolt.mmix.club
Авторские права
con...@...Показать
Вход на сайт
Логин:
Пароль:
 
Навигация по сайту
Популярные статьи

Торрент трекер | Скачать торрент | Скачать через Торрент | Скачать торрент бесплатно | Скачать торрент без регистрации КПК и мобильные торрент скачать Сто к одному (28.06.2020) WEBRip [H.264] [MP4|1280x720] торрент скачать бесплатно

Сто к одному (28.06.2020) WEBRip [H.264] [MP4|1280x720] торрент скачать бесплатно

КПК и мобильные торрент скачать
Сто к одному (28.06.2020) WEBRip [H.264] [MP4|1280x720]Телекомпания: Россия 1
Жанр: Тв-Шоу

Описание

Цель участников игры ‘Сто к одному’ состоит в том, чтобы угадать наиболее распространённые ответы людей с улицы на предложенные вопросы, на которые невозможно дать однозначный объективный ответ, например, ‘Какую еду больше всего любят французы?’. Ответы бывают порой совершенно непредсказуемы и очень забавны. К примеру, на вопрос ‘Кто поддерживает порядок в стране?’ десять из ста случайных прохожих могли дать ответ ‘дворники’.
Другие примеры вопросов: ‘Что делает женщина, когда у неё сломался каблук?’, ‘Каких насекомых чаще всего убивают?’.
‘Сто к одному’ — командная игра. Каждый игрок должен высказать своё мнение, предложить свою версию, но победа (или поражение) достаётся всей команде в целом. Чаще всего команды для телеигры составляются по профессиональному признаку, и нередко в игре принимают участие популярные певцы, актёры, спортсмены.
Продолжительность: 00: 39: 05
Качество видео: WEBRip
Субтитры: Отсутствуют
Видео: AVC/H.264, 1280x720, ~1400 kbps
Аудио: AAC, 2 ch, 128 kbps
Общее
Полное имя : D: ВидеоСто к Одному HD 28.06.2020.mp4
Формат : MPEG-4
Профиль формата : Base Media
Идентификатор кодека : isom
Размер файла : 433 Мбайт
Продолжительность : 39 м.
Общий поток : 1548 Кбит/сек
Программа кодирования : Lavf58.29.100
Видео
Идентификатор : 1
Формат : AVC
Формат/Информация : Advanced Video Codec
Профиль формата : High@L3.1
Параметр CABAC формата : Да
Параметр ReFrames формата : 4 кадра
Идентификатор кодека : avc1
Идентификатор кодека/Информация : Advanced Video Coding
Продолжительность : 39 м.
Битрейт : 1400 Кбит/сек
Ширина : 1280 пикселей
Высота : 720 пикселей
Соотношение сторон : 16: 9
Режим частоты кадров : Постоянный
Частота кадров : 25, 000 кадров/сек
Цветовое пространство : YUV
Субдискретизация насыщенности : 4: 2: 0
Битовая глубина : 8 бит
Тип развёртки : Прогрессивная
Бит/(Пиксели*Кадры) : 0.061
Размер потока : 395 Мбайт (91%)
Заголовок : ISO Media file produced by Google Inc.
Библиотека кодирования : x264 core 157
Аудио
Идентификатор : 2
Формат : AAC
Формат/Информация : Advanced Audio Codec
Профиль формата : LC
Идентификатор кодека : 40
Продолжительность : 39 м.
Вид битрейта : Постоянный
Битрейт : 128 Кбит/сек
Каналы : 2 канала
Расположение каналов : Front: L R
Частота : 44, 1 КГц
Метод сжатия : С потерями
Задержка видео : -1 с. 24 мс.
Размер потока : 36, 0 Мбайт (8%)
Заголовок : ISO Media file produced by Google Inc.
Скриншоты:


Все одноименные релизы в Клубе
Время раздачи: (до появления первых 3-5 скачавших)
 
Уважаемый посетитель, Вы зашли на сайт как незарегистрированный пользователь. Мы рекомендуем Вам зарегистрироваться либо зайти на сайт под своим именем.

Другие новости по теме:

  • Сто к одному (21.03.2020) WEBRip [H.264] [MP4|1280x720]
  • Сто к одному (22.03.2020) WEBRip [H.264] [MP4|1280x720]
  • Сто к одному (28.03.2020) WEBRip [H.264] [MP4|1280x720]
  • Сто к одному (29.03.2020) WEBRip [H.264] [MP4|1280x720]
  • Сто к одному (04.04.2020) WEBRip [H.264] [MP4|1280x720]
  • Сто к одному (05.04.2020) WEBRip [H.264] [MP4|1280x720]
  • Сто к одному (11.04.2020) WEBRip [H.264] [MP4|1280x720]
  • Сто к одному (12.04.2020) WEBRip [H.264] [MP4|1280x720]


  • Информация
    Посетители, находящиеся в группе Гости, не могут оставлять комментарии в данной новости.
    Главная страница | Регистрация | Добавить новость | Новое на сайте Copyright © 2019. bolt.mmix.club All Rights Reserved