Подписывайся на наш канал в Telegram https://t.me/torrentok и получи доступ к торрентам без ограничений!
. bolt.mmix.club
Авторские права
con...@...Показать
Вход на сайт
Логин:
Пароль:
 
Навигация по сайту
Популярные статьи

Торрент трекер | Скачать торрент | Скачать через Торрент | Скачать торрент бесплатно | Скачать торрент без регистрации КПК и мобильные торрент скачать Лейтенант Суворов (2009) WEBRip [H.264] (серии 1-2 из 2) [MP4|1920x1080] торрент скачать бесплатно

Лейтенант Суворов (2009) WEBRip [H.264] (серии 1-2 из 2) [MP4|1920x1080] торрент скачать бесплатно

КПК и мобильные торрент скачать
Лейтенант Суворов (2009) WEBRip [H.264] (серии 1-2 из 2) [MP4|1920x1080]Производство: Россия | Феникс-Фильм
Жанр: Драма, мелодрама, военный
Режиссер: Алексей Козлов
Актеры: Александр Ляпин, Светлана Смирнова-Марцинкевич, Алексей Козлов, Сергей Паршин, Дмитрий Аверин, Константин Панченко, Сергей Русскин, Татьяна Бедова, Игорь Ключников, Артем Гайдуков

Описание

Первые дни войны. Вчерашний выпускник военного училища лейтенант Александр Суворов встает на защиту родного города, из которого бегут перепуганные жители. Обстреляв кучку немцев, Суворов и его товарищи всерьез думают, что это и есть война. Последующие события убеждают героев, что настоящая война — намного серьезнее. Параллельно идет развитие любовной линии. В город на каникулы приезжает школьная любовь Суворова Анюта, которая поначалу не принимает его ухаживаний…

Возраст: 16+ (зрителям, достигшим 16 лет)
Продолжительность: ~00: 45: 00 серия
Качество видео: WEBRip 1080р
Перевод: Не требуется (русский)
Субтитры: Отсутствуют
Видео: AVC/H.264, 1920x1080, ~2244 kbps
Аудио: AAC, 2 ch, 128 kbps - русский
General
Complete name : Лейтенант_Суворов_2009_WEBRip_1080pЛейтенант_Суворов_02.mp4
Format : MPEG-4
Format profile : Base Media
Codec ID : isom (isom/iso2/avc1/mp41)
File size : 737 MiB
Duration : 43 min 18 s
Overall bit rate : 2 378 kb/s
Writing application : Lavf58.20.100
Video
ID : 1
Format : AVC
Format/Info : Advanced Video Codec
Format profile : High@L4
Format settings : CABAC/3 Ref Frames
Format settings, CABAC : Yes
Format settings, ReFrames : 3 frames
Codec ID : avc1
Codec ID/Info : Advanced Video Coding
Duration : 43 min 18 s
Duration_FirstFrame : -40 ms
Bit rate : 2 244 kb/s
Width : 1 920 pixels
Height : 1 080 pixels
Display aspect ratio : 16: 9
Frame rate mode : Variable
Frame rate : 25.000 FPS
Minimum frame rate : 25.000 FPS
Maximum frame rate : 25.014 FPS
Color space : YUV
Chroma subsampling : 4: 2: 0
Bit depth : 8 bits
Scan type : Progressive
Bits/(Pixel*Frame) : 0.043
Stream size : 695 MiB (94%)
Writing library : x264 core 155 r2901 7d0ff22
Color range : Limited
Color primaries : BT.709
Transfer characteristics : BT.709
Matrix coefficients : BT.709
Codec configuration box : avcC
Audio
ID : 2
Format : AAC LC
Format/Info : Advanced Audio Codec Low Complexity
Codec ID : mp4a-40-2
Duration : 43 min 18 s
Bit rate mode : Constant
Bit rate : 128 kb/s
Channel(s) : 2 channels
Channel layout : L R
Sampling rate : 44.1 kHz
Frame rate : 43.066 FPS (1024 SPF)
Compression mode : Lossy
Stream size : 39.6 MiB (5%)
Default : Yes
Alternate group : 1
Скриншоты:


Все одноименные релизы в Клубе
Время раздачи: 24/7 (до 3-5 скачавших)
 
Уважаемый посетитель, Вы зашли на сайт как незарегистрированный пользователь. Мы рекомендуем Вам зарегистрироваться либо зайти на сайт под своим именем.

Другие новости по теме:

  • Плохой Лейтенант / Bad Lieutenant (1992) BDRip [720p]
  • Как один лейтенант войну остановил (2008) IPTVRip скачать через торрент бесплатно
  • Сергей Волгин | Лейтенант милиции Вязов. Книга вторая (1960) [FB2] скачать через торрент бесплатно
  • Сесил Скотт Форестер | Лейтенант Хорнблоуэр (2016) [MP3]
  • Даниил Гранин | Мой лейтенант (2016) [MP3]
  • Лейтенант (2016) WEB-DL [H.264 / 1080p-LQ]
  • Лейтенант (2016) WEB-DLRip
  • Лейтенант (2016) WEB-DL [1080p] ATV


  • Информация
    Посетители, находящиеся в группе Гости, не могут оставлять комментарии в данной новости.
    Главная страница | Регистрация | Добавить новость | Новое на сайте Copyright © 2019. bolt.mmix.club All Rights Reserved