Подписывайся на наш канал в Telegram https://t.me/torrentok и получи доступ к торрентам без ограничений!
. bolt.mmix.club
Авторские права
con...@...Показать
Вход на сайт
Логин:
Пароль:
 
Навигация по сайту
Популярные статьи

Торрент трекер | Скачать торрент | Скачать через Торрент | Скачать торрент бесплатно | Скачать торрент без регистрации КПК и мобильные торрент скачать Мистер ошибка / Bay Yanlıs (2020) WEB-DLRip [H.264] (сезон 1, серии 1 из ) SesDizi [MP4|1280x720] (обновляемая) торрент скачать бесплатно

Мистер ошибка / Bay Yanlıs (2020) WEB-DLRip [H.264] (сезон 1, серии 1 из ) SesDizi [MP4|1280x720] (обновляемая) торрент скачать бесплатно

КПК и мобильные торрент скачать
Мистер ошибка / Bay Yanlıs (2020) WEB-DLRip [H.264] (сезон 1, серии 1 из ) SesDizi [MP4|1280x720] (обновляемая)Производство: Турция/Gold Film
Жанр: Комедия, мелодрама
Режиссер: Дениз Йорулмазер
Актеры: Джан Яман, Озге Гюрель, Фатма Топташ, Гюрген Оз, Суат Сунгур, Лале Башар, Сарпджан Кёроглу, Серкай Тютюнджю, Эдже Иртем, Джемре Гюмели, Аныл Челик

Описание

Эзги жизнерадостная и веселая девушка, на пути которой появляется Озгюр. Имя Озгюр в переводе с турецкого языка означает – свободный. Он оправдывает свое имя, человек свободолюбивый. Герои сталкиваются с непростым вопросом – любовь или логика? Их случайная встреча, начавшая с крупной ссоры и недоразумения, станет судьбоносной и в двери молодых людей постучится сказочная любовь…
Озгюр и Эзги соседи. Несмотря на то, что Озгюр из богатой семьи, он работает барменом в одном из баров, свободолюбивый и бесшабашный, который не верит в любовь. А Эзги прекрасная молодая девушка, которой не везет в любви. Ее единственная цель – найти любовь и подходящего человека, за которого сможет выйти замуж. Озгюр, заметив как не везет соседке в любви, решает помочь ей завоевать любовь любимого мужчины. Тренируя Эзги, объясняя что такое любовь, чего хотят мужчины, Озгюр незаметно сам безумно влюбляется в нее…

Продолжительность: ~02: 00: 00 серия
Качество видео: WEB-DLRip
Перевод: Двуголосый любительский (SesDizi)
Субтитры: отсутствуют
Видео: AVC/H.264, 1280x720, ~1525 kbps
Аудио: AAC, 2 ch, 192 kbps - русский
General
Complete name : J: Mister.Oshibka.s01.WEB-DLRip720p.SesDiziMister.Oshibka.s01.e01.WEB-DLRip720p.SesDizi.mp4
Format : MPEG-4
Format profile : Base Media
Codec ID : isom (isom/avc1)
File size : 1.44 GiB
Duration : 2 h 0 min
Overall bit rate mode : Variable
Overall bit rate : 1 721 kb/s
Encoded date : UTC 2020-06-27 08: 21: 37
Tagged date : UTC 2020-06-27 08: 21: 37
Writing application : My MP4Box GUI 0.6.0.6 http://my-mp4box-gui.zymichost.com
Video
ID : 1
Format : AVC
Format/Info : Advanced Video Codec
Format profile : High@L3.1
Format settings : CABAC/3 Ref Frames
Format settings, CABAC : Yes
Format settings, Reference fra : 3 frames
Codec ID : avc1
Codec ID/Info : Advanced Video Coding
Duration : 2 h 0 min
Bit rate : 1 525 kb/s
Maximum bit rate : 6 416 kb/s
Width : 1 280 pixels
Height : 720 pixels
Display aspect ratio : 16: 9
Frame rate mode : Constant
Frame rate : 25.000 FPS
Color space : YUV
Chroma subsampling : 4: 2: 0
Bit depth : 8 bits
Scan type : Progressive
Bits/(Pixel*Frame) : 0.066
Stream size : 1.28 GiB (89%)
Title : 1_track1.h264
Encoded date : UTC 2020-06-27 08: 21: 37
Tagged date : UTC 2020-06-27 08: 23: 02
Color range : Limited
Color primaries : BT.709
Transfer characteristics : BT.709
Matrix coefficients : BT.709
Codec configuration box : avcC
Audio
ID : 2
Format : AAC LC
Format/Info : Advanced Audio Codec Low Complexity
Codec ID : mp4a-40-2
Duration : 2 h 0 min
Bit rate mode : Variable
Bit rate : 192 kb/s
Maximum bit rate : 201 kb/s
Channel(s) : 2 channels
Channel layout : L R
Sampling rate : 44.1 kHz
Frame rate : 43.066 FPS (1024 SPF)
Compression mode : Lossy
Stream size : 165 MiB (11%)
Title : 1ð_track2.aac
Encoded date : UTC 2020-06-27 08: 22: 57
Tagged date : UTC 2020-06-27 08: 23: 02
 
Уважаемый посетитель, Вы зашли на сайт как незарегистрированный пользователь. Мы рекомендуем Вам зарегистрироваться либо зайти на сайт под своим именем.

Другие новости по теме:

  • Приключения Питкина в больнице / Мистер Питкин в больнице / A Stitch in Time (1963) DVDRip [H.264]
  • Мистер Квак / Ribbit (2014) WEB-DL [H.264 / 720p-LQ] [EN / EN Sub] скачать через торрент бесплатно
  • Мистер Питкин в тылу врага / The Square Peg (1959) DVDRip [H.264] скачать через торрент бесплатно
  • Мистер Питкин: Вверх тормашками / Up in the World (1956) DVD5
  • Мистер Пип / Mr. Pip (2012) BDRip [1080p]
  • Мистер Селфридж / Mr.Selfridge (2015) WEB-DLRip [H.264 / 720p-LQ] (сезон 3, серии 1 из 10) (ViruseProject) (обновляемая) скачать через торрент бесплатно
  • Мистер Селфридж / Mr. Selfridge (2015) WEB-DLRip (сезон 3, серии 1-2 из 10) (ViruseProject) (обновляемая) скачать через торрент бесплатно
  • (OST) Ядерный Титбит (Deadушки, Мистер Малой) (2001) [MP3|320 кб / с] скачать через торрент бесплатно


  • Информация
    Посетители, находящиеся в группе Гости, не могут оставлять комментарии в данной новости.
    Главная страница | Регистрация | Добавить новость | Новое на сайте Copyright © 2019. bolt.mmix.club All Rights Reserved