Подписывайся на наш канал в Telegram https://t.me/torrentok и получи доступ к торрентам без ограничений!
. bolt.mmix.club
Авторские права
con...@...Показать
Вход на сайт
Логин:
Пароль:
 
Навигация по сайту
Популярные статьи

Торрент трекер | Скачать торрент | Скачать через Торрент | Скачать торрент бесплатно | Скачать торрент без регистрации КПК и мобильные торрент скачать Международная пилорама (20.06.2020) WEBRip [H.264] [MP4|1920x1080] торрент скачать бесплатно

Международная пилорама (20.06.2020) WEBRip [H.264] [MP4|1920x1080] торрент скачать бесплатно

КПК и мобильные торрент скачать
Международная пилорама (20.06.2020) WEBRip [H.264] [MP4|1920x1080]Производство: Россия | Телекомпания НТВ
Жанр: Юмор
Ведущий: Тигран Кеосаян

Описание

Международная пилорама сэкономит время телезрителей. Следить за политической обстановкой в мире, колебаниями курсов валют и новостями шоу-бизнеса теперь вовсе не обязательно. Каждую субботу Тигран Эдмондович в свойственной ему язвительной манере будет разбирать события мировой политики. Под огонь его едких комментариев попадут многие — от журналистов до политических лидеров. Благодаря харизме и обаянию Кеосаяна топовые темы недели вмиг превратятся в юмористические зарисовки, соавторами которых станут его гости –популярные актеры, певцы, чиновники и спортсмены, а позитивное настроение в студии поддержат специальные рубрики.
Продолжительность: 00: 35: 32
Качество видео: WEBRip
Субтитры: Отсутствуют
Видео: AVC/H.264, 1920x1080, ~2990 kbps
Аудио: AAC, 2 ch, 128 kbps - русский
General
Complete name : Международная пилорама 20 июня 2020.mp4
Format : MPEG-4
Format profile : Base Media
Codec ID : isom (isom/iso2/avc1/mp41)
File size : 793 MiB
Duration : 35 min 32 s
Overall bit rate : 3 120 kb/s
Writing application : Lavf58.20.100
Video
ID : 1
Format : AVC
Format/Info : Advanced Video Codec
Format profile : High@L4
Format settings : CABAC/3 Ref Frames
Format settings, CABAC : Yes
Format settings, ReFrames : 3 frames
Codec ID : avc1
Codec ID/Info : Advanced Video Coding
Duration : 35 min 32 s
Bit rate : 2 986 kb/s
Width : 1 920 pixels
Height : 1 080 pixels
Display aspect ratio : 16: 9
Frame rate mode : Constant
Frame rate : 25.000 FPS
Color space : YUV
Chroma subsampling : 4: 2: 0
Bit depth : 8 bits
Scan type : Progressive
Bits/(Pixel*Frame) : 0.058
Stream size : 759 MiB (96%)
Title : ISO Media file produced by Google Inc.
Color range : Limited
Color primaries : BT.709
Transfer characteristics : BT.709
Matrix coefficients : BT.709
Codec configuration box : avcC
Audio
ID : 2
Format : AAC LC
Format/Info : Advanced Audio Codec Low Complexity
Codec ID : mp4a-40-2
Duration : 35 min 32 s
Bit rate mode : Constant
Bit rate : 128 kb/s
Channel(s) : 2 channels
Channel layout : L R
Sampling rate : 44.1 kHz
Frame rate : 43.066 FPS (1024 SPF)
Compression mode : Lossy
Stream size : 32.5 MiB (4%)
Title : ISO Media file produced by Google Inc.
Language : English
Default : Yes
Alternate group : 1
Скриншоты:


Все одноименные релизы в Клубе
Время раздачи: 24/7 (до появления первых 3-5 скачавших)
 
Уважаемый посетитель, Вы зашли на сайт как незарегистрированный пользователь. Мы рекомендуем Вам зарегистрироваться либо зайти на сайт под своим именем.

Другие новости по теме:

  • Международная пилорама (2016.09.03) SATRip (выпуск 1)
  • Международная пилорама (2016.09.10) SATRip (выпуск 2)
  • Международная пилорама (2016.09.17) SATRip (выпуск 3)
  • Международная пилорама (2016.09.24) SATRip (выпуск 4)
  • Международная пилорама (2016.10.02) SATRip (выпуск 5)
  • Международная пилорама (2016.10.08) SATRip (выпуск 6)
  • Международная пилорама (2016.10.15) SATRip (выпуск 7)
  • Международная пилорама (2016.10.22) SATRip (выпуск 8)


  • Информация
    Посетители, находящиеся в группе Гости, не могут оставлять комментарии в данной новости.
    Главная страница | Регистрация | Добавить новость | Новое на сайте Copyright © 2019. bolt.mmix.club All Rights Reserved