Подписывайся на наш канал в Telegram https://t.me/torrentok и получи доступ к торрентам без ограничений!
. bolt.mmix.club
Авторские права
con...@...Показать
Вход на сайт
Логин:
Пароль:
 
Навигация по сайту
Популярные статьи

Торрент трекер | Скачать торрент | Скачать через Торрент | Скачать торрент бесплатно | Скачать торрент без регистрации КПК и мобильные торрент скачать Бабло (2011) WEBRip [H.264] [MP4|1920x1036] торрент скачать бесплатно

Бабло (2011) WEBRip [H.264] [MP4|1920x1036] торрент скачать бесплатно

КПК и мобильные торрент скачать
Бабло (2011) WEBRip [H.264] [MP4|1920x1036]Производство: Россия/Кинокомпания CTB
Жанр: Комедия, криминал
Режиссер: Константин Буслов
Актеры: Роман Мадянов, Яков Кучеревский, Мария Берсенева, Георгий Гургулия, Миша Месхи, Гия Гогишвили, Владимир Сычев, Александр Фисенко, Дмитрий Куличков, Борис Георгиевский

Описание

Москва. Наши дни. В центре города из машины двое воришек крадут сумку с миллионом евро, думая, что им, наконец, повезло, и даже не представляя, во что на самом деле они ввязались. За деньгами начинается настоящая охота. Перед искушением не может устоять никто. Сумма в виде двух пачек денег по полмиллиона евро делает абсолютно разных людей одинаковыми в своих поступках и желаниях. А началось все с того, что миллионщик Григорий не захотел честно платить налоги.

Возраст: 16+ (зрителям, достигшим 16 лет)
Релиз от: Алехаndr
Продолжительность: 01: 28: 11
Качество видео: WEBRip
Перевод: Не требуется (русский)
Субтитры: Отсутствуют
Видео: AVC/H.264, 1920x1036, ~3974 Kbps
Аудио: AAC, 2 ch, 250 Kbps
Общее
Полное имя : G: Бабло (2011).by.Алехаndr.mp4
Формат : MPEG-4
Профиль формата : Base Media
Идентификатор кодека : isom (isom/iso2/avc1/mp41)
Размер файла : 2, 61 Гбайт
Продолжительность : 1 ч. 28 м.
Общий поток : 4 232 Кбит/сек
Программа кодирования : Lavf57.71.100
Видео
Идентификатор : 1
Формат : AVC
Формат/Информация : Advanced Video Codec
Профиль формата : High@L4
Настройки формата : CABAC/4 Ref Frames
Параметр CABAC формата : Да
Параметр RefFrames формата : 4 кадра
Идентификатор кодека : avc1
Идентификатор кодека/Информация : Advanced Video Coding
Продолжительность : 1 ч. 28 м.
Битрейт : 3 974 Кбит/сек
Номинальный битрейт : 5 000 Кбит/сек
Ширина : 1 920 пикселей
Высота : 1 036 пикселей
Соотношение сторон : 1, 85: 1
Режим частоты кадров : Постоянный
Частота кадров : 25, 000 кадров/сек
Цветовое пространство : YUV
Субдискретизация насыщенности : 4: 2: 0
Битовая глубина : 8 бит
Тип развёртки : Прогрессивная
Бит/(Пиксели*Кадры) : 0.080
Размер потока : 2, 45 Гбайт (94%)
Библиотека кодирования : x264 core 148 r2721 72d53ab
Настройки программы : cabac=1/ref=4/deblock=1: 0: 0/analyse=0x3: 0x133/me=umh/subme=10/psy=1/psy_rd=1.00: 0.00/mixed_ref=1/me_range=24/chroma_me=1/trellis=2/8x8dct=1/cqm=0/deadzone=21, 11/fast_pskip=1/chroma_qp_offset=-2/threads=32/lookahead_threads=5/sliced_threads=0/nr=0/decimate=1/interlaced=0/bluray_compat=0/constrained_intra=0/bframes=8/b_pyramid=2/b_adapt=2/b_bias=0/direct=3/weightb=1/open_gop=0/weightp=2/keyint=100/keyint_min=50/scenecut=40/intra_refresh=0/rc_lookahead=60/rc=2pass/mbtree=1/bitrate=5000/ratetol=1.0/qcomp=0.60/qpmin=0/qpmax=69/qpstep=4/cplxblur=20.0/qblur=0.5/vbv_maxrate=5500/vbv_bufsize=920/nal_hrd=none/filler=0/ip_ratio=1.40/aq=1: 1.00
Codec configuration box : avcC
Аудио
Идентификатор : 2
Формат : AAC LC
Формат/Информация : Advanced Audio Codec Low Complexity
Идентификатор кодека : mp4a-40-2
Продолжительность : 1 ч. 28 м.
Вид битрейта : Постоянный
Битрейт : 250 Кбит/сек
Каналы : 2 канала
Channel layout : L R
Частота : 48, 0 КГц
Частота кадров : 46, 875 кадров/сек (1024 SPF)
Метод сжатия : С потерями
Размер потока : 158 Мбайт (6%)
Default : Да
Alternate group : 1
Скриншоты:


Все одноименные релизы в Клубе
Время раздачи: 24/7 (круглосуточно) (до появления первых 3-5 скачавших)
 
Уважаемый посетитель, Вы зашли на сайт как незарегистрированный пользователь. Мы рекомендуем Вам зарегистрироваться либо зайти на сайт под своим именем.

Другие новости по теме:

  • Бабло (2011) BDRip [H.264 / 720р-LQ]


  • Информация
    Посетители, находящиеся в группе Гости, не могут оставлять комментарии в данной новости.
    Главная страница | Регистрация | Добавить новость | Новое на сайте Copyright © 2019. bolt.mmix.club All Rights Reserved