Подписывайся на наш канал в Telegram https://t.me/torrentok и получи доступ к торрентам без ограничений!
. bolt.mmix.club
Авторские права
con...@...Показать
Вход на сайт
Логин:
Пароль:
 
Навигация по сайту
Популярные статьи

Торрент трекер | Скачать торрент | Скачать через Торрент | Скачать торрент бесплатно | Скачать торрент без регистрации КПК и мобильные торрент скачать Двойная сплошная (2015) WEBRip [H.264] (сезон 1, серии 1-16 из 16) [MP4|956x536] торрент скачать бесплатно

Двойная сплошная (2015) WEBRip [H.264] (сезон 1, серии 1-16 из 16) [MP4|956x536] торрент скачать бесплатно

КПК и мобильные торрент скачать
Двойная сплошная (2015) WEBRip [H.264] (сезон 1, серии 1-16 из 16) [MP4|956x536]Производство: Россия | Студия 2B
Жанр: Мелодрама
Режиссер: Владимир Нахабцев
Актеры: Евгения Добровольская, Кирилл Гребенщиков, Евгений Миллер, Анна Пескова, Валерий Афанасьев, Наталья Заякина, Валерия Бурдужа, Виталий Герасимов, Антон Батырев, Замира Колхиева

Описание

Женское счастье – был бы милый рядом…, с милым рай и в шалаше и другие народные мудрости веками убеждали девушек: милый должен быть только один. А что делать, если их два? Анна вывела свою формулу женского счастья. Вместо одного идеального мужчины она нашла сразу двоих: романтичного Александра и спокойного Владимира. Анна любит их обоих и никак не может определиться, кто ей нужен. Но жизнь всегда все расставляет по своим местам.

Возраст: 16+ (зрителям, достигшим 16 лет)
Продолжительность: ~00: 47: 00 серия
Качество видео: WEBRip
Субтитры: Отсутствуют
Видео: AVC/H.264, 956x536 (16: 9), ~1800 kbps
Аудио: AAC, 2 ch, 128 kbps - русский
General
Complete name : Двойная_сплошная_S01_2015_MP41.mp4
Format : MPEG-4
Format profile : Base Media
Codec ID : isom (isom/iso2/avc1/mp41)
File size : 604 MiB
Duration : 43 min 44 s
Overall bit rate : 1 930 kb/s
Writing application : Lavf55.33.100
Video
ID : 1
Format : AVC
Format/Info : Advanced Video Codec
Format profile : Main@L3
Format settings : CABAC/3 Ref Frames
Format settings, CABAC : Yes
Format settings, ReFrames : 3 frames
Codec ID : avc1
Codec ID/Info : Advanced Video Coding
Duration : 43 min 44 s
Bit rate : 1 800 kb/s
Width : 956 pixels
Height : 536 pixels
Display aspect ratio : 16: 9
Frame rate mode : Constant
Frame rate : 25.000 FPS
Color space : YUV
Chroma subsampling : 4: 2: 0
Bit depth : 8 bits
Scan type : Progressive
Bits/(Pixel*Frame) : 0.141
Stream size : 563 MiB (93%)
Writing library : x264 core 142
Encoding settings : cabac=1/ref=3/deblock=1: 0: 0/analyse=0x1: 0x111/me=hex/subme=7/psy=1/psy_rd=1.00: 0.00/mixed_ref=1/me_range=16/chroma_me=1/trellis=1/8x8dct=0/cqm=0/deadzone=21, 11/fast_pskip=1/chroma_qp_offset=-2/threads=48/lookahead_threads=4/sliced_threads=0/nr=0/decimate=1/interlaced=0/bluray_compat=0/constrained_intra=0/bframes=5/b_pyramid=0/b_adapt=1/b_bias=0/direct=1/weightb=1/open_gop=0/weightp=2/keyint=50/keyint_min=26/scenecut=0/intra_refresh=0/rc_lookahead=40/rc=2pass/mbtree=1/bitrate=1800/ratetol=1.0/qcomp=0.60/qpmin=0/qpmax=69/qpstep=4/cplxblur=20.0/qblur=0.5/vbv_maxrate=2700/vbv_bufsize=7200/nal_hrd=none/filler=0/ip_ratio=1.40/aq=1: 1.00
Tagged date : UTC 2017-04-28 23: 44: 00
Codec configuration box : avcC
Audio
ID : 2
Format : AAC LC
Format/Info : Advanced Audio Codec Low Complexity
Codec ID : mp4a-40-2
Duration : 43 min 44 s
Bit rate mode : Constant
Bit rate : 128 kb/s
Channel(s) : 2 channels
Channel layout : L R
Sampling rate : 44.1 kHz
Frame rate : 43.066 FPS (1024 SPF)
Compression mode : Lossy
Stream size : 40.0 MiB (7%)
Default : Yes
Alternate group : 1
Tagged date : UTC 2017-04-28 23: 44: 00
Скриншоты:


Все одноименные релизы в Клубе
Время раздачи: 24/7 (до появления первых 3-5 скачавших)
 
Уважаемый посетитель, Вы зашли на сайт как незарегистрированный пользователь. Мы рекомендуем Вам зарегистрироваться либо зайти на сайт под своим именем.

Другие новости по теме:

  • Двойная сплошная (2015) SATRip (серии 1-2 из 16) Обновляемая скачать через торрент бесплатно


  • Информация
    Посетители, находящиеся в группе Гости, не могут оставлять комментарии в данной новости.
    Главная страница | Регистрация | Добавить новость | Новое на сайте Copyright © 2019. bolt.mmix.club All Rights Reserved