Подписывайся на наш канал в Telegram https://t.me/torrentok и получи доступ к торрентам без ограничений!
. bolt.mmix.club
Авторские права
con...@...Показать
Вход на сайт
Логин:
Пароль:
 
Навигация по сайту
Популярные статьи

Торрент трекер | Скачать торрент | Скачать через Торрент | Скачать торрент бесплатно | Скачать торрент без регистрации КПК и мобильные торрент скачать Мой дом / Твой дом - твоя судьба / Судьбоносный дом / Evim / Dogdugun Ev Kaderindir (2019) WEB-DLRip (сезон 1, серии 1-11 из 11) SesDizi [MP4|1920x1080] торрент скачать бесплатно

Мой дом / Твой дом - твоя судьба / Судьбоносный дом / Evim / Dogdugun Ev Kaderindir (2019) WEB-DLRip (сезон 1, серии 1-11 из 11) SesDizi [MP4|1920x1080] торрент скачать бесплатно

КПК и мобильные торрент скачать
Мой дом / Твой дом - твоя судьба / Судьбоносный дом / Evim / Dogdugun Ev Kaderindir (2019) WEB-DLRip (сезон 1, серии 1-11 из 11) SesDizi [MP4|1920x1080]Производство: Турция/OGM Pictures
Жанр: Драма
Режиссер: Чагры Байрак, Murat Öztürk
Актеры: Ибрагим Челиккол, Демет Оздемир, Энгин Хепилери, Зухал Генджер, Сенан Кара, Фатих Коюноглу, Зейнеп Кумрал, Казим Синан Демирэ, Элиф Сонмез, Хюлья Дуяр

Описание

Говорят, именно дом определяет нашу судьбу – например, как пройдет твоя жизнь, кем будешь работать, с кем соединишь свою жизнь… Сначала матери берут в руки карандаш и начинают писать твою судьбу, а потом ты вырастаешь и продолжаешь за нее… Главная героиня драматического сериала задается вопросом – какой дом именно у нее, тот в котором она родилась или тот, в котором вырастала и стала личностью… Какую судьбу она должна продолжать писать – написанную матерью, которая ее родила или той женщиной, которая стала для нее мамой и вырастила? Шрамы и боль, оставшиеся от ран, нанесенных в детстве, так легко не проходят, они остаются на всю жизнь… Мехди и Зейнеп две раненные души, которые обретя друг друга в начале жизни, напишут сложную любовную легенду. Это путешествие дуэта расскажет зрителям все слова любви, которые есть только в словарях.

Продолжительность: ~02: 23: 00 серия
Качество видео: WEB-DLRip
Перевод: Двуголосый любительский (SesDizi)
Видео: AVC/H.264, 1920x1080, ~1446 kbps
Аудио: AAC, 2 ch, 192 kbps
General
Complete name : J: Dom.s01.WEB-DLRip1080p.SesDiziDom.s01.e01.WEB-DLRip1080p.SesDizi.mp4
Format : MPEG-4
Format profile : Base Media
Codec ID : isom (isom/avc1/iso6)
File size : 1.61 GiB
Duration : 2 h 20 min
Overall bit rate mode : Variable
Overall bit rate : 1 642 kb/s
Encoded date : UTC 2019-12-26 11: 19: 25
Tagged date : UTC 2019-12-26 11: 19: 25
Writing application : My MP4Box GUI 0.6.0.6 http://my-mp4box-gui.zymichost.com
Video
ID : 1
Format : AVC
Format/Info : Advanced Video Codec
Format profile : High@L4
Format settings : CABAC/3 Ref Frames
Format settings, CABAC : Yes
Format settings, ReFrames : 3 frames
Codec ID : avc1
Codec ID/Info : Advanced Video Coding
Duration : 2 h 20 min
Bit rate : 1 447 kb/s
Maximum bit rate : 5 530 kb/s
Width : 1 920 pixels
Height : 1 080 pixels
Display aspect ratio : 16: 9
Frame rate mode : Constant
Frame rate : 25.000 FPS
Color space : YUV
Chroma subsampling : 4: 2: 0
Bit depth : 8 bits
Scan type : Progressive
Bits/(Pixel*Frame) : 0.028
Stream size : 1.42 GiB (88%)
Title : 1_track1.h264
Writing library : x264 core 155 r2901 7d0ff22
Encoded date : UTC 2019-12-26 11: 19: 25
Tagged date : UTC 2019-12-26 11: 20: 35
Color range : Limited
Color primaries : BT.709
Transfer characteristics : BT.709
Matrix coefficients : BT.709
Audio
ID : 2
Format : AAC
Format/Info : Advanced Audio Codec
Format profile : LC
Codec ID : mp4a-40-2
Duration : 2 h 20 min
Bit rate mode : Variable
Bit rate : 192 kb/s
Maximum bit rate : 201 kb/s
Channel(s) : 2 channels
Channel positions : Front: L R
Sampling rate : 44.1 kHz
Frame rate : 43.066 FPS (1024 SPF)
Compression mode : Lossy
Stream size : 193 MiB (12%)
Title : 1?_track2.aac
Encoded date : UTC 2019-12-26 11: 20: 30
Tagged date : UTC 2019-12-26 11: 20: 35
 
Уважаемый посетитель, Вы зашли на сайт как незарегистрированный пользователь. Мы рекомендуем Вам зарегистрироваться либо зайти на сайт под своим именем.

Другие новости по теме:

  • Твой страх, твоя любовь (2019) WEBRip


  • Информация
    Посетители, находящиеся в группе Гости, не могут оставлять комментарии в данной новости.
    Главная страница | Регистрация | Добавить новость | Новое на сайте Copyright © 2019. bolt.mmix.club All Rights Reserved