Подписывайся на наш канал в Telegram https://t.me/torrentok и получи доступ к торрентам без ограничений!
. bolt.mmix.club
Авторские права
con...@...Показать
Вход на сайт
Логин:
Пароль:
 
Навигация по сайту
Популярные статьи

Торрент трекер | Скачать торрент | Скачать через Торрент | Скачать торрент бесплатно | Скачать торрент без регистрации КПК и мобильные торрент скачать Шоу про любовь (2020) WEBRip [H.264] (серии 1-4 из 4) [MP4|1920x1080] торрент скачать бесплатно

Шоу про любовь (2020) WEBRip [H.264] (серии 1-4 из 4) [MP4|1920x1080] торрент скачать бесплатно

КПК и мобильные торрент скачать
Шоу про любовь (2020) WEBRip [H.264] (серии 1-4 из 4) [MP4|1920x1080]Производство: Россия | Кинокомпания Русское
Жанр: Мелодрама
Режиссер: Станислав Назиров
Актеры: Галина Безрук, Дмитрий Ермак, Константин Крюков, Александра Богданова, Алексей Барабаш, Дарья Иванова, Валентина Муравская и др.

Описание

Скромная учительница из обычной деревни Люба Кудряшова уже не ждала от жизни счастья. Остались только разочарования от неудавшегося брака и несбывшиеся мечты о детях. Но однажды все изменилось, и Люба стала объектом всеобщего интереса – знакомых и незнакомых людей, журналистов. Известный актер Олег Турбин в своем интервью рассказывает о Любе как о своей первой любви. Вскоре она получает приглашение в столицу для участия в телешоу и оказывается пешкой в незнакомом и жестоком мире гламура, борьбы за рейтинг и пиар. Сбежит ли она домой подальше от всей этой лжи и лицемерия или усвоит правила и… начнет собственную игру?

Дата российской премьеры: 13 июня 2020
Продолжительность: 02: 59: 57
Качество видео: WEBRip
Субтитры: Отсутствуют
Видео: AVC/H.264, 1920x1080, ~2500 Kbps
Аудио: AAC, 2 ch, 128 Kbps - русский
General
Complete name : Шоу_про_любовь_2020_1080p_1-4_серии.mp4
Format : MPEG-4
Format profile : Base Media
Codec ID : isom (isom/iso2/avc1/mp41)
File size : 3.31 GiB
Duration : 2 h 59 min
Overall bit rate : 2 633 kb/s
Writing application : Lavf58.20.100
Video
ID : 1
Format : AVC
Format/Info : Advanced Video Codec
Format profile : High@L4
Format settings : CABAC/3 Ref Frames
Format settings, CABAC : Yes
Format settings, ReFrames : 3 frames
Codec ID : avc1
Codec ID/Info : Advanced Video Coding
Duration : 2 h 59 min
Bit rate : 2 500 kb/s
Width : 1 920 pixels
Height : 1 080 pixels
Display aspect ratio : 16: 9
Frame rate mode : Constant
Frame rate : 25.000 FPS
Color space : YUV
Chroma subsampling : 4: 2: 0
Bit depth : 8 bits
Scan type : Progressive
Bits/(Pixel*Frame) : 0.048
Stream size : 3.14 GiB (95%)
Title : ISO Media file produced by Google Inc.
Color range : Limited
Color primaries : BT.709
Transfer characteristics : BT.709
Matrix coefficients : BT.709
Codec configuration box : avcC
Audio
ID : 2
Format : AAC LC
Format/Info : Advanced Audio Codec Low Complexity
Codec ID : mp4a-40-2
Duration : 2 h 59 min
Bit rate mode : Constant
Bit rate : 128 kb/s
Channel(s) : 2 channels
Channel layout : L R
Sampling rate : 44.1 kHz
Frame rate : 43.066 FPS (1024 SPF)
Compression mode : Lossy
Stream size : 165 MiB (5%)
Title : ISO Media file produced by Google Inc.
Default : Yes
Alternate group : 1
Скриншоты:


Все одноименные релизы в Клубе
Время раздачи: (до появления первых 3-5 скачавших)
 
Уважаемый посетитель, Вы зашли на сайт как незарегистрированный пользователь. Мы рекомендуем Вам зарегистрироваться либо зайти на сайт под своим именем.

Другие новости по теме:

  • Настя Любимова ft. Sound Hackers - Нереальная Любовь (2011) WEBRip [H.264 / 720p-LQ] скачать через торрент бесплатно
  • Настя Любимова ft. St1m - Мода На Любовь (2014) WEBRip [H.264 / 720p-LQ] скачать через торрент бесплатно
  • Любовь / Love (2015) WEBRip [H.264 / 720p-LQ] [EN] скачать через торрент бесплатно
  • Любовь / Love (2015) WEBRip скачать через торрент бесплатно
  • Любовь / Love (2015) WEBRip [H.264 / 720p-LQ] [VO] скачать через торрент бесплатно
  • Любовь хулигана (2015) WEBRip
  • Любовь / Love (2016) WEBRip [H.264 / 720p] (сезон 1, серии 1-7 из 10) Ozz (обновляемая)
  • Любовь напрокат (2014) WEBRip


  • Информация
    Посетители, находящиеся в группе Гости, не могут оставлять комментарии в данной новости.
    Главная страница | Регистрация | Добавить новость | Новое на сайте Copyright © 2019. bolt.mmix.club All Rights Reserved