Подписывайся на наш канал в Telegram https://t.me/torrentok и получи доступ к торрентам без ограничений!
. bolt.mmix.club
Авторские права
con...@...Показать
Вход на сайт
Логин:
Пароль:
 
Навигация по сайту
Популярные статьи

Торрент трекер | Скачать торрент | Скачать через Торрент | Скачать торрент бесплатно | Скачать торрент без регистрации КПК и мобильные торрент скачать Чёрная лестница (2019) WEBRip [H.264] (сезон 1, серии 1-10 из 20) [MP4|1920x1080] (обновляемая) торрент скачать бесплатно

Чёрная лестница (2019) WEBRip [H.264] (сезон 1, серии 1-10 из 20) [MP4|1920x1080] (обновляемая) торрент скачать бесплатно

КПК и мобильные торрент скачать
Чёрная лестница (2019) WEBRip [H.264] (сезон 1, серии 1-10 из 20) [MP4|1920x1080] (обновляемая)Производство: Россия | АН-фильм
Жанр: Драма, триллер
Режиссер: Сахат Дурсунов
Актеры: Алексей Матошин, Алексей Ушаков, Марина Коняшкина, Денис Васильев, Игорь Жижикин, Марина Куделинская, Азамат Нигманов, Денис Старков, Павел Фартуков

Описание

Вадим Тельцов переезжает в столицу, где получает должность оперативника уголовного розыска и однушку в спальном районе Москвы. Однажды одно вроде бы стандартное дело переворачивает жизнь циничного опера с ног на голову: расследование убийства бизнесмена Юсова знакомит Тельцова с молодым руфером Максом, сыном убитого. Коллеги Тельцова подозревают Макса в убийстве отца, но Вадим уверен, что парень невиновен. Из-за оплошности Тельцова увольняют, но он не отчаивается и открывает своё детективное агентство, куда берёт на работу нового знакомого.

Возраст: 16+ (зрителям, достигшим 16 лет)
Дата российской премьеры: 01 июня 2020
Продолжительность: ~00: 48: 00 серия
Качество видео: WEBRip 1080p-LQ
Перевод: Не требуется (русский)
Субтитры: Отсутствуют
Видео: AVC/H.264, 1920х1080, ~1790 Kbps
Аудио: AAC, 2 ch, 128 Kbps - русский
General
Complete name : D: Чёрная_лестница_S01_2019_WEBRip_1080pЧёрная_лестница_S01_2019_WEBRip_1080p_04.mp4
Format : MPEG-4
Format profile : Base Media
Codec ID : isom (isom/iso2/avc1/mp41)
File size : 664 MiB
Duration : 48 min 16 s
Overall bit rate : 1 923 kb/s
Writing application : Lavf58.20.100
Video
ID : 1
Format : AVC
Format/Info : Advanced Video Codec
Format profile : High@L4
Format settings : CABAC/3 Ref Frames
Format settings, CABAC : Yes
Format settings, ReFrames : 3 frames
Codec ID : avc1
Codec ID/Info : Advanced Video Coding
Duration : 48 min 15 s
Duration_FirstFrame : -40 ms
Bit rate : 1 789 kb/s
Width : 1 920 pixels
Height : 1 080 pixels
Display aspect ratio : 16: 9
Frame rate mode : Variable
Frame rate : 25.000 FPS
Minimum frame rate : 25.000 FPS
Maximum frame rate : 25.014 FPS
Color space : YUV
Chroma subsampling : 4: 2: 0
Bit depth : 8 bits
Scan type : Progressive
Bits/(Pixel*Frame) : 0.035
Stream size : 618 MiB (93%)
Writing library : x264 core 155 r2901 7d0ff22
Color range : Limited
Color primaries : BT.709
Transfer characteristics : BT.709
Matrix coefficients : BT.709
Codec configuration box : avcC
Audio
ID : 2
Format : AAC LC
Format/Info : Advanced Audio Codec Low Complexity
Codec ID : mp4a-40-2
Duration : 48 min 16 s
Bit rate mode : Constant
Bit rate : 128 kb/s
Channel(s) : 2 channels
Channel layout : L R
Sampling rate : 44.1 kHz
Frame rate : 43.066 FPS (1024 SPF)
Compression mode : Lossy
Stream size : 44.2 MiB (7%)
Default : Yes
Alternate group : 1
Скриншоты:


Все одноименные релизы в Клубе
Время раздачи: (Мультитрекер)
 
Уважаемый посетитель, Вы зашли на сайт как незарегистрированный пользователь. Мы рекомендуем Вам зарегистрироваться либо зайти на сайт под своим именем.

Другие новости по теме:

  • Чёрная лестница (2019) SATRip [H.264] (сезон 1, серии 1-2 из 20) (обновляемая)
  • Чёрная лестница (2019) WEBRip [H.264] (сезон 1, серии 1-10 из 20) (обновляемая)


  • Информация
    Посетители, находящиеся в группе Гости, не могут оставлять комментарии в данной новости.
    Главная страница | Регистрация | Добавить новость | Новое на сайте Copyright © 2019. bolt.mmix.club All Rights Reserved