Подписывайся на наш канал в Telegram https://t.me/torrentok и получи доступ к торрентам без ограничений!
. bolt.mmix.club
Авторские права
con...@...Показать
Вход на сайт
Логин:
Пароль:
 
Навигация по сайту
Популярные статьи

Торрент трекер | Скачать торрент | Скачать через Торрент | Скачать торрент бесплатно | Скачать торрент без регистрации КПК и мобильные торрент скачать Мандалорец / The Mandalorian (2019) WEBRip [H.264] (сезон 1, серии 1-8 из 8) [MP4|1280x536] VHSник торрент скачать бесплатно

Мандалорец / The Mandalorian (2019) WEBRip [H.264] (сезон 1, серии 1-8 из 8) [MP4|1280x536] VHSник торрент скачать бесплатно

КПК и мобильные торрент скачать
Мандалорец / The Mandalorian (2019) WEBRip [H.264] (сезон 1, серии 1-8 из 8) [MP4|1280x536] VHSникПроизводство: США/Lucasfilm Ltd., Walt Disney Studios
Жанр: Фантастика, Боевик, Приключения
Режиссер: Дебора Чоу, Рик Фамуйива, Дэйв Филони
Актеры: Педро Паскаль, Карл Уэзерс, Рио Хэкфорд, Джина Карано, Вернер Херцог, Ник Нолти, Тайка Вайтити, Эмили Суоллоу, Мисти Росас, Крис Бартлетт

Описание

Одинокий мандалорец-наёмник живёт на краю обитаемой галактики, куда не дотягивается закон Новой Республики. Представитель некогда могучей расы благородных воинов теперь вынужден влачить жалкое существование среди отбросов общества.

Дата мировой премьеры: 12.11.2019
Продолжительность: ~00: 40: 00 серия
Качество видео: WEBRip
Перевод: Одноголосый закадровый (VHSник )
Субтитры: Английские (hardsub на инопланетную речь)
Видео: AVC, 1280x536, ~4762 kbps
Аудио: AAC, 2 ch, ~192 kbps - Русский
General
Complete name : D: Мандалорец - сезон 1 - VHSникМандалорец - сезон 1, серия 2 - VHSник.mp4
Format : MPEG-4
Format profile : Base Media/Version 2
Codec ID : mp42 (isom/mp42)
File size : 1.07 GiB
Duration : 30 min 56 s
Overall bit rate mode : Variable
Overall bit rate : 4 954 kb/s
Encoded date : UTC 2019-11-16 12: 14: 24
Tagged date : UTC 2019-11-16 12: 14: 24
Video
ID : 1
Format : AVC
Format/Info : Advanced Video Codec
Format profile : High@L3.1
Format settings : CABAC/1 Ref Frames
Format settings, CABAC : Yes
Format settings, ReFrames : 1 frame
Format settings, GOP : M=1, N=30
Codec ID : avc1
Codec ID/Info : Advanced Video Coding
Duration : 30 min 56 s
Source duration : 30 min 56 s
Bit rate : 4 762 kb/s
Width : 1 280 pixels
Height : 536 pixels
Display aspect ratio : 2.40: 1
Frame rate mode : Constant
Frame rate : 23.976 (24000/1001) FPS
Color space : YUV
Chroma subsampling : 4: 2: 0
Bit depth : 8 bits
Scan type : Progressive
Bits/(Pixel*Frame) : 0.290
Stream size : 1.03 GiB (96%)
Source stream size : 1.03 GiB (96%)
Language : English
Encoded date : UTC 2019-11-16 12: 14: 25
Tagged date : UTC 2019-11-16 12: 14: 25
Codec configuration box : avcC
Audio
ID : 2
Format : AAC LC
Format/Info : Advanced Audio Codec Low Complexity
Codec ID : mp4a-40-2
Duration : 30 min 56 s
Bit rate mode : Variable
Bit rate : 192 kb/s
Maximum bit rate : 383 kb/s
Channel(s) : 2 channels
Channel layout : L R
Sampling rate : 48.0 kHz
Frame rate : 46.875 FPS (1024 SPF)
Compression mode : Lossy
Stream size : 41.9 MiB (4%)
Language : English
Encoded date : UTC 2019-11-16 12: 14: 25
Tagged date : UTC 2019-11-16 12: 14: 25

VHSник - озвучки с большой оглядкой на мэтров одноголосых переводов эпохи VHS
Скриншоты:

Все одноименные релизы в Клубе
Время раздачи: 24/7 (мультитрекер)
 
Уважаемый посетитель, Вы зашли на сайт как незарегистрированный пользователь. Мы рекомендуем Вам зарегистрироваться либо зайти на сайт под своим именем.

Другие новости по теме:

  • Мандалорец / Mandalorian (2019) WEBRip [H.264 / 720p-LQ] (сезон 1, серии 1-2 из 8) (обновляемая) finargot
  • Мандалорец / Mandalorian (2019) WEBRip [H.264 / 1080p] (сезон 1, серии 1-3 из 8) finargot (обновляемая)
  • Мандалорец / Mandalorian (2019) WEB-DL [H.264 / 1080p] (сезон 1 серии 1-4 из 8) Flarrow Films (обновляемая)
  • Мандалорец / The Mandalorian (2019) WEBRip [H.265 / 2160p-LQ] [HDR, 10 bit] (сезон 1, серии 1-8 из 8) LostFilm
  • Мандалорец / The Mandalorian (2019) WEBRip [H.264 / 1080p-LQ] (сезон 1, серия 1 из 8) (обновляемая) HDRezka Studio
  • Мандалорец / The Mandalorian (2019) WEBRip [H.264 / 1080p-LQ] (сезон 1, серия 1 из 8) (обновляемая) LakeFilms [AD]
  • Мандалорец / The Mandalorian (2019) WEBRip (сезон 1, серии 1-2 из 8) (обновляемая) HDRezka Studio
  • Мандалорец / The Mandalorian (2019) WEB-DLRip (сезон 1, серия 1 из 8) Lostfilm (обновляемая)


  • Информация
    Посетители, находящиеся в группе Гости, не могут оставлять комментарии в данной новости.
    Главная страница | Регистрация | Добавить новость | Новое на сайте Copyright © 2019. bolt.mmix.club All Rights Reserved