Подписывайся на наш канал в Telegram https://t.me/torrentok и получи доступ к торрентам без ограничений!
. bolt.mmix.club
Авторские права
con...@...Показать
Вход на сайт
Логин:
Пароль:
 
Навигация по сайту
Популярные статьи

Торрент трекер | Скачать торрент | Скачать через Торрент | Скачать торрент бесплатно | Скачать торрент без регистрации КПК и мобильные торрент скачать Майор и магия (2016) WEBRip [H.264] (сезон 1, серии 1-10 из 32) [MP4|1920x1080] (обновляемая) торрент скачать бесплатно

Майор и магия (2016) WEBRip [H.264] (сезон 1, серии 1-10 из 32) [MP4|1920x1080] (обновляемая) торрент скачать бесплатно

КПК и мобильные торрент скачать
Майор и магия (2016) WEBRip [H.264] (сезон 1, серии 1-10 из 32) [MP4|1920x1080] (обновляемая)Производство: Россия | Intra Communications
Жанр: Детектив
Режиссер: Владимир Мельниченко
Актеры: Константин Самоуков, Мария Берсенева, Евгений Сахаров, Константин Войтенко, Олег Примогенов, Виктория Билан, Вячеслав Довженко, Владимир Николаенко, Александр Катунин, Константин Корецкий

Описание

Офицер ФСО Антон Амосов проявляет принципиальность и ставит на место обнаглевшего чиновника. Над головой майора сгущаются тучи. Из Москвы его переводят в родной город Рязанск – пока буря не уляжется. Здесь ему приходится работать обычным опером в местном РОВД. Первое задание — арестовать аферистку Елену Воробьяшкину. По дороге у подозреваемой открывается дар предвидения — она предотвращает аварию. Вскоре провидица поступает на службу в полицию и своими озарениями помогает Амосову раскрывать самые запутанные дела.

Возраст: 16+ (зрителям, достигшим 16 лет)
Продолжительность: ~00: 40: 00 серия
Качество видео: WEBRip 1080р
Перевод: Не требуется (русский)
субтитры: Отсутствуют
Видео: AVC/H.264, 1920x1080, ~2110 Kbps
Аудио: AAC, 2 ch, 128 Kbps - русский
General
Complete name : D: Майор_и_Магия_2016_WEBRip_1080pМайор_и_Магия_2016_WEBRip_1080p_06.mp4
Format : MPEG-4
Format profile : Base Media
Codec ID : isom (isom/iso2/avc1/mp41)
File size : 639 MiB
Duration : 39 min 45 s
Overall bit rate : 2 246 kb/s
Writing application : Lavf58.20.100
Video
ID : 1
Format : AVC
Format/Info : Advanced Video Codec
Format profile : High@L4
Format settings : CABAC/3 Ref Frames
Format settings, CABAC : Yes
Format settings, ReFrames : 3 frames
Codec ID : avc1
Codec ID/Info : Advanced Video Coding
Duration : 39 min 45 s
Duration_FirstFrame : -40 ms
Bit rate : 2 112 kb/s
Width : 1 920 pixels
Height : 1 080 pixels
Display aspect ratio : 16: 9
Frame rate mode : Variable
Frame rate : 25.000 FPS
Minimum frame rate : 25.000 FPS
Maximum frame rate : 25.014 FPS
Color space : YUV
Chroma subsampling : 4: 2: 0
Bit depth : 8 bits
Scan type : Progressive
Bits/(Pixel*Frame) : 0.041
Stream size : 600 MiB (94%)
Writing library : x264 core 155 r2901 7d0ff22
Color range : Limited
Color primaries : BT.709
Transfer characteristics : BT.709
Matrix coefficients : BT.709
Codec configuration box : avcC
Audio
ID : 2
Format : AAC LC
Format/Info : Advanced Audio Codec Low Complexity
Codec ID : mp4a-40-2
Duration : 39 min 45 s
Bit rate mode : Constant
Bit rate : 128 kb/s
Channel(s) : 2 channels
Channel layout : L R
Sampling rate : 44.1 kHz
Frame rate : 43.066 FPS (1024 SPF)
Compression mode : Lossy
Stream size : 36.4 MiB (6%)
Default : Yes
Alternate group : 1
Скриншоты:


Все одноименные релизы в Клубе
Время раздачи: 24/7 (до появления первых 3-5 скачавших)
 
Уважаемый посетитель, Вы зашли на сайт как незарегистрированный пользователь. Мы рекомендуем Вам зарегистрироваться либо зайти на сайт под своим именем.

Другие новости по теме:

  • Майор и магия (2016) SATRip [H.264] (серии 1-2 из 32) (обновляемая)


  • Информация
    Посетители, находящиеся в группе Гости, не могут оставлять комментарии в данной новости.
    Главная страница | Регистрация | Добавить новость | Новое на сайте Copyright © 2019. bolt.mmix.club All Rights Reserved