Подписывайся на наш канал в Telegram https://t.me/torrentok и получи доступ к торрентам без ограничений!
. bolt.mmix.club
Авторские права
con...@...Показать
Вход на сайт
Логин:
Пароль:
 
Навигация по сайту
Популярные статьи

Торрент трекер | Скачать торрент | Скачать через Торрент | Скачать торрент бесплатно | Скачать торрент без регистрации КПК и мобильные торрент скачать В ночь / Into the Night (2020) WEBRip [H.264 / 720p-LQ] (сезон 1) Profix Media торрент скачать бесплатно

В ночь / Into the Night (2020) WEBRip [H.264 / 720p-LQ] (сезон 1) Profix Media торрент скачать бесплатно

КПК и мобильные торрент скачать
В ночь / Into the Night (2020) WEBRip [H.264 / 720p-LQ] (сезон 1) Profix MediaПроизводство: Бельгия
Жанр: Фантастика, триллер, драма
Режиссер: Инти Кальфат, Дирк Верхей
Актеры: Полин Этьен, Лорен Капеллуто, Стефано Кассетти, Мехмет Куртулуш, Бабетида Саджо, Ян Бейвут, Ксаверы Шленкер, Винсент Лондез, Регина Биккинина, Альба Гайя Крагеде Беллуджи

Описание

Сериал повествует о внезапной аномалии, возникшей ранним утром, когда лучи солнца начали убивать всё живое на своём пути. Сюжет рассказывает о пассажирах и экипаже самолёта, который перед рассветом успел покинуть аэропорт. Они узнают о катастрофе и чтобы выжить, им предстоит лететь на Запад, подальше от солнца, в безопасную тьму. На борту люди из разных стран, говорящие на разных языках и принадлежащие к разным социальным группам: богатые и бедные, молодые и старые, гражданские и военные. Всех их объединяет желание выжить. Но во время полёта ситуация быстро выходит из-под контроля…

Дата мировой премьеры: 1 мая 2020
Продолжительность: 6x ~00: 40: 00
Качество видео: WEBRip
Перевод: Многоголосый профессиональный (Profix Media)
Видео: AVC/H.264, 1280x720, ~3000 Kbps
Аудио: AAC, 2 ch, 132 Kbps
Общее
Полное имя : D: ФильмыВ ночь (2020) (1-й сезон)1.серия.В ночь.mp4
Формат : MPEG-4
Профиль формата : Base Media
Идентификатор кодека : isom (isom/iso2/avc1/mp41)
Размер файла : 887 Мбайт
Продолжительность : 40 м. 38 с.
Общий поток : 3 051 Кбит/сек
Видео
Идентификатор : 1
Формат : AVC
Формат/Информация : Advanced Video Codec
Профиль формата : High@L3.1
Настройки формата : CABAC/4 Ref Frames
Параметр CABAC формата : Да
Параметр RefFrames формата : 4 кадра
Идентификатор кодека : avc1
Идентификатор кодека/Информация : Advanced Video Coding
Продолжительность : 40 м. 38 с.
Битрейт : 3 000 Кбит/сек
Ширина : 1 280 пикселей
Высота : 720 пикселей
Соотношение сторон : 16: 9
Режим частоты кадров : Постоянный
Частота кадров : 24, 000 кадра/сек
Цветовое пространство : YUV
Субдискретизация насыщенности : 4: 2: 0
Битовая глубина : 8 бит
Тип развёртки : Прогрессивная
Бит/(Пиксели*Кадры) : 0.136
Размер потока : 848 Мбайт (96%)
Заголовок : Video Track
Библиотека кодирования : x264 core 157 r2958 57baac4
Настройки программы : cabac=1/ref=3/deblock=1: -2: -2/analyse=0x3: 0x133/me=hex/subme=7/psy=1/psy_rd=1.00: 0.20/mixed_ref=1/me_range=16/chroma_me=1/trellis=1/8x8dct=1/cqm=0/deadzone=21, 11/fast_pskip=1/chroma_qp_offset=-3/threads=9/lookahead_threads=1/sliced_threads=0/nr=0/decimate=1/interlaced=0/bluray_compat=0/constrained_intra=0/bframes=3/b_pyramid=2/b_adapt=2/b_bias=0/direct=3/weightb=1/open_gop=0/weightp=2/keyint=240/keyint_min=24/scenecut=40/intra_refresh=0/rc_lookahead=40/rc=abr/mbtree=1/bitrate=3000/ratetol=1.0/qcomp=0.60/qpmin=0/qpmax=69/qpstep=4/ip_ratio=1.40/aq=1: 1.00
Язык : French
Codec configuration box : avcC
Аудио
Идентификатор : 2
Формат : AAC LC
Формат/Информация : Advanced Audio Codec Low Complexity
Идентификатор кодека : mp4a-40-2
Продолжительность : 40 м. 38 с.
Duration_LastFrame : -7 мс.
Вид битрейта : Постоянный
Битрейт : 132 Кбит/сек
Каналы : 2 канала
Channel layout : L R
Частота : 48, 0 КГц
Частота кадров : 46, 875 кадров/сек (1024 SPF)
Метод сжатия : С потерями
Размер потока : 37, 7 Мбайт (4%)
Заголовок : Audio Track
Язык : Russian
Default : Да
Alternate group : 1
Скриншоты:


Все одноименные релизы в Клубе
Время раздачи: 3-5 скачавших, 24/7 (круглосуточно) (до появления первых 3-5 скачавших)
 
Уважаемый посетитель, Вы зашли на сайт как незарегистрированный пользователь. Мы рекомендуем Вам зарегистрироваться либо зайти на сайт под своим именем.

Другие новости по теме:

  • Долгий день уходит в ночь / Di qiu zui hou de ye wan (Long Days Journey Into Night) (2018) HDRip [MVO]
  • Долгий день уходит в ночь / Di qiu zui hou de ye wan (Long Days Journey Into Night) (2018) WEBRip [H.264 / 1080p-LQ] [MVO]
  • Долгий день уходит в ночь / Di qiu zui hou de ye wan / Long Days Journey Into Night (2018) BDRip [H.264 / 720p-LQ] [10 bit] [MVO]


  • Информация
    Посетители, находящиеся в группе Гости, не могут оставлять комментарии в данной новости.
    Главная страница | Регистрация | Добавить новость | Новое на сайте Copyright © 2019. bolt.mmix.club All Rights Reserved