Подписывайся на наш канал в Telegram https://t.me/torrentok и получи доступ к торрентам без ограничений!
. bolt.mmix.club
Авторские права
con...@...Показать
Вход на сайт
Логин:
Пароль:
 
Навигация по сайту
Популярные статьи

Торрент трекер | Скачать торрент | Скачать через Торрент | Скачать торрент бесплатно | Скачать торрент без регистрации КПК и мобильные торрент скачать Меч (2009) WEBRip [H.264] (сезон 1, серии 1-25 из 25) [MP4|1920x1080] торрент скачать бесплатно

Меч (2009) WEBRip [H.264] (сезон 1, серии 1-25 из 25) [MP4|1920x1080] торрент скачать бесплатно

КПК и мобильные торрент скачать
Меч (2009) WEBRip [H.264] (сезон 1, серии 1-25 из 25) [MP4|1920x1080]Производство: Россия/Компания DIXI-TV
Жанр: Боевик, криминал, драма
Режиссер: Рустам Уразаев, Виктор Конисевич
Актеры: Эдуард Флёров, Роман Курцын, Тимур Ефременков, Дарья Повереннова, Виктория Фишер, Александр Баринов, Нина Гогаева, Владислав Павлов, Александр Фисенко, Шухрат Иргашев и др.

Описание

Наши дни. Москва. Растущий мегаполис выходит из-под контроля милиции. Уровень преступности растет в геометрической прогрессии. Макс Калинин бывший офицер разведки ВДВ, оперативник УБОП. По фиктивному обвинению его увольняют со службы. На деле Макс просто не согласился отпустить преступника, за которого кто-то из его руководства получил большую взятку. Калинин принимает непростое решение, он будет бороться с беззаконием своими методами. Макс собирает маленькую команду единомышленников...

Возраст: 16+ (зрителям, достигшим 16 лет)
Продолжительность: ~00: 48: 00 серия
Качество видео: WEBRip
Субтитры: Отсутствуют
Видео: AVC/H.264, 1920x1080 (16: 9), ~2025 Kbps
Аудио: AAC, 2 ch, 128 Kbps
Общее
Полное имя : G: Меч (2009)Меч. Серия 01.mp4
Формат : MPEG-4
Профиль формата : Base Media
Идентификатор кодека : isom (isom/iso2/avc1/mp41)
Размер файла : 769 Мбайт
Продолжительность : 49 м. 54 с.
Общий поток : 2 155 Кбит/сек
Программа кодирования : Lavf58.20.100
Видео
Идентификатор : 1
Формат : AVC
Формат/Информация : Advanced Video Codec
Профиль формата : High@L4
Настройки формата : CABAC/3 Ref Frames
Параметр CABAC формата : Да
Параметр RefFrames формата : 3 кадра
Идентификатор кодека : avc1
Идентификатор кодека/Информация : Advanced Video Coding
Продолжительность : 49 м. 54 с.
Битрейт : 2 023 Кбит/сек
Ширина : 1 920 пикселей
Высота : 1 080 пикселей
Соотношение сторон : 16: 9
Режим частоты кадров : Постоянный
Частота кадров : 24, 000 кадра/сек
Цветовое пространство : YUV
Субдискретизация насыщенности : 4: 2: 0
Битовая глубина : 8 бит
Тип развёртки : Прогрессивная
Бит/(Пиксели*Кадры) : 0.041
Размер потока : 722 Мбайт (94%)
Библиотека кодирования : x264 core 155 r2901 7d0ff22
Цветовой диапазон : Limited
Основные цвета : BT.709
Характеристики трансфера : BT.709
Коэффициенты матрицы : BT.709
Codec configuration box : avcC
Аудио
Идентификатор : 2
Формат : AAC LC
Формат/Информация : Advanced Audio Codec Low Complexity
Идентификатор кодека : mp4a-40-2
Продолжительность : 49 м. 54 с.
Вид битрейта : Постоянный
Битрейт : 128 Кбит/сек
Каналы : 2 канала
Channel layout : L R
Частота : 44, 1 КГц
Частота кадров : 43, 066 кадра/сек (1024 SPF)
Метод сжатия : С потерями
Размер потока : 45, 7 Мбайт (6%)
Default : Да
Alternate group : 1
Скриншоты:


Все одноименные релизы в Клубе
Время раздачи: 24/7 (круглосуточно) (до появления первых 3-5 скачавших)
 
Уважаемый посетитель, Вы зашли на сайт как незарегистрированный пользователь. Мы рекомендуем Вам зарегистрироваться либо зайти на сайт под своим именем.

Другие новости по теме:

  • Пляж. Жаркий сезон (2018) WEBRip (сезон 2, серии 1-16 из 16)
  • Конь БоДжек / BoJack Horseman (2014) WEBRip (Сезон 1, серии 1-12 из 12) (NewStudio) [18+]
  • Куку / Cuckoo (2014) WEBRip (Сезон 2, серии 1-2 из 6) (Amedia) (обновляемая)
  • Куку / Cuckoo (2014) WEBRip (Сезон 2, серии 1-4 из 6) (Ozz) (обновляемая)
  • Halo: Сумерки / Halo: Nightfall (2014) WEBRip (сезон 1, серии 1 из 5) AlexFilm (обновляемая) скачать через торрент бесплатно
  • Halo: Сумерки / Halo: Nightfall (2014) WEBRip (сезон 1, серии 1 из 5) NewStudio (обновляемая)
  • Моцарт в джунглях / Mozart in the Jungle (2014) WEBRip (Сезон 1, серия 1 из 10) (Ozz) (обновляемая)
  • Девчонки / Some Girls (2013) WEBRip [сезон 2, серии 1-6 из 6] (ViruseProject)


  • Информация
    Посетители, находящиеся в группе Гости, не могут оставлять комментарии в данной новости.
    Главная страница | Регистрация | Добавить новость | Новое на сайте Copyright © 2019. bolt.mmix.club All Rights Reserved