Подписывайся на наш канал в Telegram https://t.me/torrentok и получи доступ к торрентам без ограничений!
. bolt.mmix.club
Авторские права
con...@...Показать
Вход на сайт
Логин:
Пароль:
 
Навигация по сайту
Популярные статьи

Торрент трекер | Скачать торрент | Скачать через Торрент | Скачать торрент бесплатно | Скачать торрент без регистрации КПК и мобильные торрент скачать Джентльмены / The Gentlemen (2019) BDRip [MP4|1280x536] торрент скачать бесплатно

Джентльмены / The Gentlemen (2019) BDRip [MP4|1280x536] торрент скачать бесплатно

КПК и мобильные торрент скачать
Джентльмены / The Gentlemen (2019) BDRip [MP4|1280x536]Производство: США, Miramax
Жанр: Боевик, комедия, криминал
Режиссер: Гай Ричи
Актеры: Мэттью МакКонахи, Чарли Ханнэм, Генри Голдинг, Хью Грант, Мишель Докери, Джереми Стронг, Эдди Марсан, Джейсон Вонг, Колин Фаррелл, Лайн Рени

Описание

Один ушлый американец ещё со студенческих лет приторговывал наркотиками, а теперь придумал схему нелегального обогащения с использованием поместий обедневшей английской аристократии и очень неплохо на этом разбогател. Другой пронырливый журналист приходит к Рэю, правой руке американца, и предлагает тому купить киносценарий, в котором подробно описаны преступления его босса при участии других представителей лондонского криминального мира — партнёра-еврея, китайской диаспоры, чернокожих спортсменов и даже русского олигарха.

Возраст: 18+ (зрителям, достигшим 18 лет. запрещено для детей)
Рейтинг MPAA: R (лицам до 17 лет обязательно присутствие взрослого)
Дата мировой премьеры: 3 декабря 2019
Дата российской премьеры: 13 февраля 2020, Вольга
Релиз от: Androdot
Продолжительность: 01: 53: 15
Качество видео: BDRip
Перевод: Дублированный
Субтитры: Oтсутствуют
Видео: AVC/H.264, 1280x536, ~3300 Kbps
Аудио: AAC, 2 ch, 192 Kbps
Общее
Полное имя : D: 2The.Gentlemen.2020.BDRip.720p.MP4.Androdot.mp4
Формат : MPEG-4
Профиль формата : Base Media
Идентификатор кодека : isom (isom)
Размер файла : 2, 78 Гбайт
Продолжительность : 1 ч. 53 м.
Режим общего битрейта : Переменный
Общий поток : 3 498 Кбит/сек
Название фильма : Джентльмены/The Gentlemen (2019)
Исполнитель : Мэттью МакКонахи, Чарли Ханнэм, Генри Голдинг, Хью Грант, Мишель Докери, Джереми Стронг, Эдди Марсан, Джейсон Вонг, Колин Фаррелл, Лайн Рени
Жанр : Action Adventure
Тип содержимого : Short Film
Дата кодирования : UTC 2020-05-18 13: 01: 34
Дата пометки : UTC 2020-05-18 13: 21: 30
Программа кодирования : Megui
Обложка : Yes
Примечание : Androdot - NNM Mobile
ContentRating : mpaa|NC-17|500|
LongDescription : Один ушлый американец ещё со студенческих лет приторговывал наркотиками, а теперь придумал схему нелегального обогащения с использованием поместий обедневшей английской аристократии и очень неплохо на этом разбогател. Другой пронырливый журналист приходит к Рэю, правой руке американца, и предлагает тому купить киносценарий, в котором подробно описаны преступления его босса при участии других представителей лондонского криминального мира — партнёра-еврея, китайской диаспоры, чернокожих спортсменов и даже русского олигарха.
Видео
Идентификатор : 1
Формат : AVC
Формат/Информация : Advanced Video Codec
Профиль формата : High@L4
Настройки формата : CABAC/10 Ref Frames
Параметр CABAC формата : Да
Параметр RefFrames формата : 10 кадров
Идентификатор кодека : avc1
Идентификатор кодека/Информация : Advanced Video Coding
Продолжительность : 1 ч. 53 м.
Битрейт : 3 300 Кбит/сек
Максимальный битрейт : 14, 3 Мбит/сек
Ширина : 1 280 пикселей
Высота : 536 пикселей
Соотношение сторон : 2, 40: 1
Режим частоты кадров : Постоянный
Частота кадров : 23, 976 (24000/1001) кадра/сек
Цветовое пространство : YUV
Субдискретизация насыщенности : 4: 2: 0
Битовая глубина : 8 бит
Тип развёртки : Прогрессивная
Бит/(Пиксели*Кадры) : 0.201
Размер потока : 2, 62 Гбайт (94%)
Библиотека кодирования : x264 core 157 r2969 d4099dd
Настройки программы : cabac=1/ref=11/deblock=1: -1: -1/analyse=0x3: 0x133/me=umh/subme=9/psy=1/psy_rd=1.00: 0.00/mixed_ref=0/me_range=32/chroma_me=1/trellis=2/8x8dct=1/cqm=0/deadzone=21, 11/fast_pskip=0/chroma_qp_offset=-2/threads=4/lookahead_threads=1/sliced_threads=0/nr=0/decimate=0/interlaced=0/bluray_compat=0/constrained_intra=0/bframes=8/b_pyramid=1/b_adapt=2/b_bias=0/direct=3/weightb=1/open_gop=0/weightp=2/keyint=240/keyint_min=23/scenecut=40/intra_refresh=0/rc_lookahead=60/rc=2pass/mbtree=1/bitrate=3300/ratetol=1.0/qcomp=0.60/qpmin=0/qpmax=69/qpstep=4/cplxblur=20.0/qblur=0.5/ip_ratio=1.40/aq=1: 1.00
Язык : English
Дата кодирования : UTC 2020-05-18 01: 05: 31
Дата пометки : UTC 2020-05-18 13: 04: 47
Codec configuration box : avcC
Аудио
Идентификатор : 2
Формат : AAC LC
Формат/Информация : Advanced Audio Codec Low Complexity
Идентификатор кодека : mp4a-40-2
Продолжительность : 1 ч. 53 м.
Продолжительность оригинала : 1 ч. 53 м.
Вид битрейта : Переменный
Битрейт : 192 Кбит/сек
Максимальный битрейт : 217 Кбит/сек
Каналы : 2 канала
Channel layout : L R
Частота : 48, 0 КГц
Частота кадров : 46, 875 кадров/сек (1024 SPF)
Метод сжатия : С потерями
Размер потока : 156 Мбайт (6%)
Размер потока оригинала : 156 Мбайт (6%)
Язык : Russian
Default : Да
Alternate group : 1
Дата пометки : UTC 2020-05-18 13: 04: 47
---Information 5/17/2020 6: 05: 29 PM x264 info: frame I: 1651 Avg QP: 13.03 size: 125585
---Information 5/17/2020 6: 05: 29 PM x264 info: frame P: 34164 Avg QP: 15.95 size: 39436
---Information 5/17/2020 6: 05: 29 PM x264 info: frame B: 127703 Avg QP: 17.94 size: 9847
---Information 5/17/2020 6: 05: 29 PM x264 info: consecutive B-frames: 2.5% 2.4% 8.9% 12.7% 15.4% 40.0% 8.7% 5.0% 4.5%
---Information 5/17/2020 6: 05: 29 PM x264 info: mb I I16..4: 6.3% 73.2% 20.5%
---Information 5/17/2020 6: 05: 29 PM x264 info: mb P I16..4: 1.7% 8.6% 1.3% P16..4: 56.2% 14.6% 11.1% 0.8% 0.2% skip: 5.5%
---Information 5/17/2020 6: 05: 29 PM x264 info: mb B I16..4: 0.1% 0.6% 0.1% B16..8: 44.0% 8.1% 2.3% direct: 6.1% skip: 38.7% L0: 45.9% L1: 45.0% BI: 9.1%
---Information 5/17/2020 6: 05: 29 PM x264 info: 8x8 transform intra: 73.8% inter: 56.8%
---Information 5/17/2020 6: 05: 29 PM x264 info: direct mvs spatial: 98.1% temporal: 1.9%
---Information 5/17/2020 6: 05: 29 PM x264 info: coded y, uvDC, uvAC intra: 83.8% 91.0% 78.4% inter: 24.9% 34.8% 19.8%
---Information 5/17/2020 6: 05: 29 PM x264 info: i16 v, h, dc, p: 45% 16% 8% 31%
---Information 5/17/2020 6: 05: 29 PM x264 info: i8 v, h, dc, ddl, ddr, vr, hd, vl, hu: 13% 10% 7% 9% 13% 12% 13% 11% 12%
---Information 5/17/2020 6: 05: 29 PM x264 info: i4 v, h, dc, ddl, ddr, vr, hd, vl, hu: 13% 10% 5% 10% 15% 13% 13% 10% 12%
---Information 5/17/2020 6: 05: 29 PM x264 info: i8c dc, h, v, p: 47% 20% 17% 16%
---Information 5/17/2020 6: 05: 29 PM x264 info: Weighted P-Frames: Y: 1.5% UV: 0.6%
---Information 5/17/2020 6: 05: 29 PM x264 info: ref P L0: 53.9% 6.3% 15.3% 7.7% 5.3% 3.9% 2.9% 1.9% 1.6% 1.3% 0.1% 0.0%
---Information 5/17/2020 6: 05: 29 PM x264 info: ref B L0: 70.0% 12.8% 6.7% 3.4% 2.4% 1.8% 1.4% 0.9% 0.6%
---Information 5/17/2020 6: 05: 29 PM x264 info: ref B L1: 92.1% 7.9%
---Information 5/17/2020 6: 05: 29 PM x264 info: kb/s: 3298.68Скриншоты:


Все одноименные релизы в Клубе
Время раздачи: 24/7 (круглосуточно) (до появления первых 3-5 скачавших)
 
Уважаемый посетитель, Вы зашли на сайт как незарегистрированный пользователь. Мы рекомендуем Вам зарегистрироваться либо зайти на сайт под своим именем.

Другие новости по теме:

  • Джентльмены женятся на брюнетках / Gentlemen Marry Brunettes (1955) HDTV [H.264 / 1080i] скачать через торрент бесплатно
  • Джентльмены женятся на брюнетках / Gentlemen Marry Brunettes (1955) HDTVRip [H.264]
  • Chris Benstead - The Gentlemen / Джентльмены (Original Motion Picture Soundtrack) (2019) [FLAC2.0|48 / 24|tracks|WEB-DL] <Soundtrack>
  • Chris Benstead - The Gentlemen / Джентльмены (Original Motion Picture Soundtrack) (2019) [FLAC|Lossless|WEB-DL|tracks]<Soundtrack>
  • Chris Benstead - The Gentlemen / Джентльмены (Original Motion Picture Soundtrack) (2019) [MP3|320 кб / с]<Soundtrack>
  • Джентльмены / The Gentlemen (2019) WEB-DLRip [H.264 / 1080p-LQ] [Line, AD]
  • Джентльмены / The Gentlemen (2019) WEB-DLRip [H.264 / 720p-LQ] [Line, AD]
  • Джентльмены / The Gentlemen (2019) WEB-DLRip [MVO]


  • Информация
    Посетители, находящиеся в группе Гости, не могут оставлять комментарии в данной новости.
    Главная страница | Регистрация | Добавить новость | Новое на сайте Copyright © 2019. bolt.mmix.club All Rights Reserved