Подписывайся на наш канал в Telegram https://t.me/torrentok и получи доступ к торрентам без ограничений!
. bolt.mmix.club
Авторские права
con...@...Показать
Вход на сайт
Логин:
Пароль:
 
Навигация по сайту
Популярные статьи

Торрент трекер | Скачать торрент | Скачать через Торрент | Скачать торрент бесплатно | Скачать торрент без регистрации КПК и мобильные торрент скачать Предок (2019) WEB-DL [MP4|1920x802] торрент скачать бесплатно

Предок (2019) WEB-DL [MP4|1920x802] торрент скачать бесплатно

КПК и мобильные торрент скачать
Предок (2019) WEB-DL [MP4|1920x802]Производство: Россия/Artlight, Инвада фильм
Жанр: Комедия
Режиссер: Максим Зыков
Актеры: Максим Деричев, Дмитрий Гущин, Карина Разумовская, Никита Тарасов, Федор Лавров, Даниил Радионов, Яков Киселевич, Ульяна Медведюк, Светлана Колпакова, Марат Хисамов

Описание

Сергей Лапин решает всерьез взяться за воспитание своего десятилетнего сына, когда неожиданно осознает, что мальчика воспитывают исключительно женщины: дома мама, в школе — женский педагогический состав. Но оказывается, что все не так просто, и процесс воспитания нужно начинать с себя. Никакие педагогические техники не помогут решить пресловутый вопрос отцов и детей, только личный пример и искреннее участие в жизни ребенка. Сергею Лапину предстоит разобраться, чем же живет нынешнее молодое поколение.

Релиз от: ELEKTRI4KA/Androdot
Продолжительность: 01: 20: 33
Качество видео: WEB-DL
Перевод: Не требуется (Русский) iTunes
Субтитры: Oтсутствуют
Видео: HEVC/H.265, 1920x802, ~4604 Kbps
Аудио: AAC, 2 ch, 192 Kbps
Общее
Полное имя : D: 2Predok.2019.WEB-DL.ELEKTRI4KA..mp4
Формат : MPEG-4
Профиль формата : Base Media
Идентификатор кодека : isom (isom/avc1)
Размер файла : 2, 70 Гбайт
Продолжительность : 1 ч. 20 м.
Режим общего битрейта : Переменный
Общий поток : 4 804 Кбит/сек
Название фильма : Предок (2019)
Исполнитель : Максим Деричев, Дмитрий Гущин, Карина Разумовская, Никита Тарасов, Федор Лавров, Даниил Радионов, Яков Киселевич, Ульяна Медведюк, Светлана Колпакова, Марат Хисамов
Жанр : Comedy
Тип содержимого : Short Film
Дата кодирования : UTC 2020-05-17 13: 09: 08
Дата пометки : UTC 2020-05-17 13: 31: 59
Программа кодирования : Megui
Обложка : Yes
Примечание : Androdot - NNM Mobile
LongDescription : Сергей Лапин решает всерьез взяться за воспитание своего десятилетнего сына, когда неожиданно осознает, что мальчика воспитывают исключительно женщины: дома мама, в школе — женский педагогический состав. Но оказывается, что все не так просто, и процесс воспитания нужно начинать с себя. Никакие педагогические техники не помогут решить пресловутый вопрос отцов и детей, только личный пример и искреннее участие в жизни ребенка. Сергею Лапину предстоит разобраться, чем же живет нынешнее молодое поколение.
Видео
Идентификатор : 1
Формат : AVC
Формат/Информация : Advanced Video Codec
Профиль формата : High@L4
Настройки формата : CABAC/5 Ref Frames
Параметр CABAC формата : Да
Параметр RefFrames формата : 5 кадров
Параметр GOP формата : M=2, N=120
Идентификатор кодека : avc1
Идентификатор кодека/Информация : Advanced Video Coding
Продолжительность : 1 ч. 20 м.
Битрейт : 4 604 Кбит/сек
Максимальный битрейт : 13, 5 Мбит/сек
Ширина : 1 920 пикселей
Высота : 802 пикселя
Соотношение сторон : 2, 40: 1
Режим частоты кадров : Постоянный
Частота кадров : 24, 000 кадра/сек
Цветовое пространство : YUV
Субдискретизация насыщенности : 4: 2: 0
Битовая глубина : 8 бит
Тип развёртки : Прогрессивная
Бит/(Пиксели*Кадры) : 0.125
Размер потока : 2, 59 Гбайт (96%)
Язык : English
Дата кодирования : UTC 2020-05-17 13: 09: 08
Дата пометки : UTC 2020-05-17 13: 18: 44
Цветовой диапазон : Limited
Основные цвета : BT.709
Характеристики трансфера : BT.709
Коэффициенты матрицы : BT.709
Codec configuration box : avcC
Аудио
Идентификатор : 2
Формат : AAC LC
Формат/Информация : Advanced Audio Codec Low Complexity
Идентификатор кодека : mp4a-40-2
Продолжительность : 1 ч. 20 м.
Продолжительность оригинала : 1 ч. 20 м.
Вид битрейта : Переменный
Битрейт : 192 Кбит/сек
Максимальный битрейт : 197 Кбит/сек
Каналы : 2 канала
Channel layout : L R
Частота : 48, 0 КГц
Частота кадров : 46, 875 кадров/сек (1024 SPF)
Метод сжатия : С потерями
Размер потока : 111 Мбайт (4%)
Размер потока оригинала : 111 Мбайт (4%)
Язык : Russian
Default : Да
Alternate group : 1
Дата пометки : UTC 2020-05-17 13: 18: 44
Скриншоты:


Все одноименные релизы в Клубе
Время раздачи: 24/7 (круглосуточно) (до появления первых 3-5 скачавших)
 
Уважаемый посетитель, Вы зашли на сайт как незарегистрированный пользователь. Мы рекомендуем Вам зарегистрироваться либо зайти на сайт под своим именем.

Другие новости по теме:

  • Предок (2019) WEB-DL [H.264 / 1080p-LQ]


  • Информация
    Посетители, находящиеся в группе Гости, не могут оставлять комментарии в данной новости.
    Главная страница | Регистрация | Добавить новость | Новое на сайте Copyright © 2019. bolt.mmix.club All Rights Reserved