Подписывайся на наш канал в Telegram https://t.me/torrentok и получи доступ к торрентам без ограничений!
. bolt.mmix.club
Авторские права
con...@...Показать
Вход на сайт
Логин:
Пароль:
 
Навигация по сайту
Популярные статьи

Торрент трекер | Скачать торрент | Скачать через Торрент | Скачать торрент бесплатно | Скачать торрент без регистрации КПК и мобильные торрент скачать Человек-невидимка / The Invisible Man (2020) BDRip [MP4|1280x536] торрент скачать бесплатно

Человек-невидимка / The Invisible Man (2020) BDRip [MP4|1280x536] торрент скачать бесплатно

КПК и мобильные торрент скачать
Человек-невидимка / The Invisible Man (2020) BDRip [MP4|1280x536]Производство: Австралия, США/Goalpost Pictures, Blumhouse Productions, Dark Universe
Жанр: Ужасы, фантастика, триллер, детектив
Режиссер: Ли Уоннелл
Актеры: Элизабет Мосс, Оливер Джексон-Коэн, Харриет Дайер, Элдис Ходж, Сторм Рейд, Майкл Дорман, Бенедикт Харди, Рени Лим, Брайан Миган, Ник Киси

Описание

Под покровом ночи Сесилия бежит из высокотехнологичного дома своего бойфренда Адриана, усыпив его снотворным и отключив системы наблюдения и сигнализацию. Теперь девушка живёт у друга, боится выходить на улицу и страдает от мании преследования, когда узнает, что её бывший мучитель покончил с собой. Адриан, лидер рынка оптических разработок, оставил Сесилии большое наследство, и, наконец-то, жизнь девушки должна наладиться. Но вскоре она вновь начинает чувствовать тревогу, как будто Адриан незаметно к ней подкрадывается — ведь невозможно спрятаться от преследователя, которого не видишь.

Возраст: 18+ (зрителям, достигшим 18 лет. запрещено для детей)
Рейтинг MPAA: R (лицам до 17 лет обязательно присутствие взрослого)
Дата мировой премьеры: 24 февраля 2020
Дата российской премьеры: 5 марта 2020, UPI
Релиз от: Androdot
Продолжительность: 02: 04: 23
Качество видео: BDRip
Перевод: Дублированный
Субтитры: Отсутствуют
Видео: AVC/H.264, 1280х536, ~3100 Kbps
Аудио: AAC, 2 ch, 192 Kbps
Общее
Полное имя : D: 2The.Invisible.Man.2020.MP4.mp4
Формат : MPEG-4
Профиль формата : Base Media
Идентификатор кодека : isom (isom)
Размер файла : 2, 87 Гбайт
Продолжительность : 2 ч. 4 м.
Режим общего битрейта : Переменный
Общий поток : 3 299 Кбит/сек
Название фильма : Человек-невидимка/The Invisible Man (2020)
Исполнитель : Элизабет Мосс, Оливер Джексон-Коэн, Харриет Дайер, Элдис Ходж, Сторм Рейд, Майкл Дорман, Бенедикт Харди, Рени Лим, Брайан Миган, Ник Киси
Жанр : Horror
Тип содержимого : Short Film
Дата кодирования : UTC 2020-05-16 13: 59: 26
Дата пометки : UTC 2020-05-16 14: 21: 26
Программа кодирования : Megui
Обложка : Yes
Примечание : Androdot - NNM Mobile
ContentRating : mpaa|NC-17|500|
LongDescription : Под покровом ночи Сесилия бежит из высокотехнологичного дома своего бойфренда Адриана, усыпив его снотворным и отключив системы наблюдения и сигнализацию. Теперь девушка живёт у друга, боится выходить на улицу и страдает от мании преследования, когда узнает, что её бывший мучитель покончил с собой. Адриан, лидер рынка оптических разработок, оставил Сесилии большое наследство, и, наконец-то, жизнь девушки должна наладиться. Но вскоре она вновь начинает чувствовать тревогу, как будто Адриан незаметно к ней подкрадывается — ведь невозможно спрятаться от преследователя, которого не видишь.
Видео
Идентификатор : 1
Формат : AVC
Формат/Информация : Advanced Video Codec
Профиль формата : High@L4
Настройки формата : CABAC/12 Ref Frames
Параметр CABAC формата : Да
Параметр RefFrames формата : 12 кадров
Идентификатор кодека : avc1
Идентификатор кодека/Информация : Advanced Video Coding
Продолжительность : 2 ч. 4 м.
Битрейт : 3 100 Кбит/сек
Максимальный битрейт : 14, 8 Мбит/сек
Ширина : 1 280 пикселей
Высота : 536 пикселей
Соотношение сторон : 2, 40: 1
Режим частоты кадров : Постоянный
Частота кадров : 23, 976 (24000/1001) кадра/сек
Цветовое пространство : YUV
Субдискретизация насыщенности : 4: 2: 0
Битовая глубина : 8 бит
Тип развёртки : Прогрессивная
Бит/(Пиксели*Кадры) : 0.188
Размер потока : 2, 69 Гбайт (94%)
Библиотека кодирования : x264 core 157 r2969 d4099dd
Настройки программы : cabac=1/ref=12/deblock=1: -1: -1/analyse=0x3: 0x133/me=umh/subme=9/psy=1/psy_rd=1.00: 0.00/mixed_ref=0/me_range=32/chroma_me=1/trellis=2/8x8dct=1/cqm=0/deadzone=21, 11/fast_pskip=0/chroma_qp_offset=-2/threads=6/lookahead_threads=1/sliced_threads=0/nr=0/decimate=0/interlaced=0/bluray_compat=0/constrained_intra=0/bframes=8/b_pyramid=2/b_adapt=2/b_bias=0/direct=3/weightb=1/open_gop=0/weightp=2/keyint=240/keyint_min=23/scenecut=40/intra_refresh=0/rc_lookahead=60/rc=2pass/mbtree=1/bitrate=3100/ratetol=1.0/qcomp=0.60/qpmin=0/qpmax=69/qpstep=4/cplxblur=20.0/qblur=0.5/ip_ratio=1.40/aq=1: 1.00
Язык : English
Дата кодирования : UTC 2020-05-16 06: 29: 33
Дата пометки : UTC 2020-05-16 14: 03: 13
Codec configuration box : avcC
Аудио
Идентификатор : 2
Формат : AAC LC
Формат/Информация : Advanced Audio Codec Low Complexity
Идентификатор кодека : mp4a-40-2
Продолжительность : 2 ч. 4 м.
Продолжительность оригинала : 2 ч. 4 м.
Вид битрейта : Переменный
Битрейт : 192 Кбит/сек
Максимальный битрейт : 220 Кбит/сек
Каналы : 2 канала
Channel layout : L R
Частота : 48, 0 КГц
Частота кадров : 46, 875 кадров/сек (1024 SPF)
Метод сжатия : С потерями
Размер потока : 171 Мбайт (6%)
Размер потока оригинала : 171 Мбайт (6%)
Язык : Russian
Default : Да
Alternate group : 1
Дата пометки : UTC 2020-05-16 14: 03: 13
Скриншоты:


Все одноименные релизы в Клубе
Время раздачи: 24/7 (круглосуточно) (до появления первых 3-5 скачавших)
 
Уважаемый посетитель, Вы зашли на сайт как незарегистрированный пользователь. Мы рекомендуем Вам зарегистрироваться либо зайти на сайт под своим именем.

Другие новости по теме:

  • Человек-невидимка / The Invisible Man (2020) CamRip [AD]
  • Benjamin Wallfisch - The Invisible Man / Человек-невидимка (Original Motion Picture Soundtrack) (2020) [FLAC|Lossless|WEB-DL|tracks]<Soundtrack>
  • Benjamin Wallfisch - The Invisible Man / Человек-невидимка (Original Motion Picture Soundtrack) (2020) [MP3|320 кб / с]<Soundtrack>
  • Человек-невидимка / The Invisible Man (2020) WEB-DLRip [Line, AD]
  • Человек-невидимка / The Invisible Man (2020) WEB-DLRip [H.264 / 1080p-LQ] [Line, AD]
  • Человек-невидимка / The Invisible Man (2020) WEB-DL [H.264 / 1080p-LQ]
  • Человек-невидимка / The Invisible Man (2020) WEB-DLRip [MVO]
  • Человек-невидимка / The Invisible Man (2020) WEBRip [H.264 / 720p-LQ] [MVO]


  • Информация
    Посетители, находящиеся в группе Гости, не могут оставлять комментарии в данной новости.
    Главная страница | Регистрация | Добавить новость | Новое на сайте Copyright © 2019. bolt.mmix.club All Rights Reserved