Подписывайся на наш канал в Telegram https://t.me/torrentok и получи доступ к торрентам без ограничений!
. bolt.mmix.club
Авторские права
con...@...Показать
Вход на сайт
Логин:
Пароль:
 
Навигация по сайту
Популярные статьи

Торрент трекер | Скачать торрент | Скачать через Торрент | Скачать торрент бесплатно | Скачать торрент без регистрации КПК и мобильные торрент скачать Хищные птицы: Потрясающая история Харли Квинн / Birds of Prey: And the Fantabulous Emancipation of One Harley Quinn (2020) BDRip [MP4|1280x536] торрент скачать бесплатно

Хищные птицы: Потрясающая история Харли Квинн / Birds of Prey: And the Fantabulous Emancipation of One Harley Quinn (2020) BDRip [MP4|1280x536] торрент скачать бесплатно

КПК и мобильные торрент скачать
Хищные птицы: Потрясающая история Харли Квинн / Birds of Prey: And the Fantabulous Emancipation of One Harley Quinn (2020) BDRip [MP4|1280x536]Платформа или формат: MP4 1280x536
Производство: США/Clubhouse Pictures (II), DC Entertainment, Kroll Co. Entertainme
Жанр: Боевик, Криминал, Комедия
Режиссер: Кэти Янь
Актеры: Марго Робби, Джерни Смоллетт, Мэри Элизабет Уинстэд, Рози Перес, Элла Джей Баско, Юэн Макгрегор, Крис Мессина, Бояна Новакович, Али Вонг, Дэвид Ури

Описание

Харли Квинн рассталась с Джокером и через некоторое время сообщила об этом всему Готэму, взорвав тот самый химзавод. Девушка больше не тоскует по несостоявшимся отношениям — ей некогда, так как она также потеряла неприкосновенность, и теперь за ней охотятся разной степени криминализованности граждане, которым она когда-либо наносила вред. А в это время ставший крёстным отцом Готема Роман Сайонис очень жаждет вернуть пропавший бриллиант, который стащила у его подручного малолетняя карманница.

Возраст: 18+ (зрителям, достигшим 18 лет. запрещено для детей)
Рейтинг MPAA: NC-17 (лицам до 17 лет просмотр запрещен)
Релиз от: Androdot
Дата мировой премьеры: 25 января 2020
Дата российской премьеры: 6 февраля 2020, Каро-Премьер
Продолжительность: 01: 48: 54
Качество видео: BDRip
Перевод: Дублированный
Субтитры: отсутствуют
Видео: AVC/H.264, 1280x536, ~3500 Kbps
Аудио: AAC, 2 ch, 192 Kbps
бщее
Полное имя : D: 2Birds of Prey And the Fantabulous Emancipation of One Harley Quinn (2020) BDRip DUB MP4 .mp4
Формат : MPEG-4
Профиль формата : Base Media
Идентификатор кодека : isom (isom)
Размер файла : 2, 81 Гбайт
Продолжительность : 1 ч. 48 м.
Режим общего битрейта : Переменный
Общий поток : 3 699 Кбит/сек
Название фильма : Хищные птицы: Потрясающая история Харли Квинн/Birds of Prey: And the Fantabulous Emancipation of One Harley Quinn (2020)
Исполнитель : Марго Робби, Джерни Смоллетт, Мэри Элизабет Уинстэд, Рози Перес, Элла Джей Баско, Юэн Макгрегор, Крис Мессина, Бояна Новакович, Али Вонг, Дэвид Ури
Жанр : Action Adventure
Тип содержимого : Short Film
Дата кодирования : UTC 2020-05-15 13: 38: 55
Дата пометки : UTC 2020-05-15 13: 52: 12
Программа кодирования : Megui
Обложка : Yes
Примечание : Androdot - NNM Mobile
LongDescription : Харли Квинн рассталась с Джокером и через некоторое время сообщила об этом всему Готэму, взорвав тот самый химзавод. Девушка больше не тоскует по несостоявшимся отношениям — ей некогда, так как она также потеряла неприкосновенность, и теперь за ней охотятся разной степени криминализованности граждане, которым она когда-либо наносила вред. А в это время ставший крёстным отцом Готема Роман Сайонис очень жаждет вернуть пропавший бриллиант, который стащила у его подручного малолетняя карманница.
Видео
Идентификатор : 1
Формат : AVC
Формат/Информация : Advanced Video Codec
Профиль формата : High@L4
Настройки формата : CABAC/11 Ref Frames
Параметр CABAC формата : Да
Параметр RefFrames формата : 11 кадров
Идентификатор кодека : avc1
Идентификатор кодека/Информация : Advanced Video Coding
Продолжительность : 1 ч. 48 м.
Битрейт : 3 500 Кбит/сек
Максимальный битрейт : 27, 6 Мбит/сек
Ширина : 1 280 пикселей
Высота : 536 пикселей
Соотношение сторон : 2, 40: 1
Режим частоты кадров : Постоянный
Частота кадров : 23, 976 (24000/1001) кадра/сек
Цветовое пространство : YUV
Субдискретизация насыщенности : 4: 2: 0
Битовая глубина : 8 бит
Тип развёртки : Прогрессивная
Бит/(Пиксели*Кадры) : 0.213
Размер потока : 2, 66 Гбайт (95%)
Библиотека кодирования : x264 core 157 r2969 d4099dd
Настройки программы : cabac=1/ref=11/deblock=1: -1: -1/analyse=0x3: 0x133/me=umh/subme=9/psy=1/psy_rd=1.00: 0.15/mixed_ref=0/me_range=32/chroma_me=1/trellis=2/8x8dct=1/cqm=0/deadzone=21, 11/fast_pskip=0/chroma_qp_offset=-3/threads=6/lookahead_threads=1/sliced_threads=0/nr=0/decimate=0/interlaced=0/bluray_compat=0/constrained_intra=0/bframes=8/b_pyramid=2/b_adapt=2/b_bias=0/direct=3/weightb=1/open_gop=0/weightp=2/keyint=240/keyint_min=23/scenecut=40/intra_refresh=0/rc_lookahead=60/rc=2pass/mbtree=1/bitrate=3500/ratetol=1.0/qcomp=0.60/qpmin=0/qpmax=69/qpstep=4/cplxblur=20.0/qblur=0.5/ip_ratio=1.40/aq=1: 1.00
Язык : English
Дата кодирования : UTC 2020-05-13 09: 03: 42
Дата пометки : UTC 2020-05-15 13: 42: 46
Codec configuration box : avcC
Аудио
Идентификатор : 2
Формат : AAC LC
Формат/Информация : Advanced Audio Codec Low Complexity
Идентификатор кодека : mp4a-40-2
Продолжительность : 1 ч. 48 м.
Продолжительность оригинала : 1 ч. 48 м.
Вид битрейта : Переменный
Битрейт : 192 Кбит/сек
Максимальный битрейт : 224 Кбит/сек
Каналы : 2 канала
Channel layout : L R
Частота : 48, 0 КГц
Частота кадров : 46, 875 кадров/сек (1024 SPF)
Метод сжатия : С потерями
Размер потока : 150 Мбайт (5%)
Размер потока оригинала : 150 Мбайт (5%)
Язык : Russian
Default : Да
Alternate group : 1
Дата пометки : UTC 2020-05-15 13: 42: 46
Скриншоты:


Все одноименные релизы в Клубе
Время раздачи: с 13: 00 до 23: 00 (до появления первых 3-5 скачавших)
 
Уважаемый посетитель, Вы зашли на сайт как незарегистрированный пользователь. Мы рекомендуем Вам зарегистрироваться либо зайти на сайт под своим именем.

Другие новости по теме:

  • Векторный клипарт - Хищные птицы - скопы, орлы, ястребы [AI, EPS]
  • VA - Birds of Prey / Хищные птицы (Потрясающая история Харли Квинн): The Album (2020) [FLAC2.0|44.1 / 24|tracks|WEB-DL] <Soundtrack>
  • VA - Birds of Prey / Хищные птицы (Потрясающая история Харли Квинн): The Album (2020) [FLAC|Lossless|WEB-DL|tracks]<Soundtrack>
  • VA - Birds of Prey / Хищные птицы: Потрясающая история Харли Квинн (The Album) (2020) [MP3|320 кб / с]<Soundtrack>
  • Daniel Pemberton - Birds of Prey / Хищные птицы: Потрясающая история Харли Квинн (Original Motion Picture Score) (2020) [FLAC2.0|48 / 24|tracks|WEB-DL] <Soundtrack, Score>
  • Daniel Pemberton - Birds of Prey / Хищные птицы: Потрясающая история Харли Квинн (Original Motion Picture Score) (2020) [FLAC|Lossless|WEB-DL|tracks]<Soundtrack, Score>
  • Daniel Pemberton - Birds of Prey / Хищные птицы: Потрясающая история Харли Квинн (Original Motion Picture Score) (2020) [MP3|320 кб / с]<Soundtrack, Score>
  • Хищные птицы: Потрясающая история Харли Квинн / Birds of Prey: And the Fantabulous Emancipation of One Harley Quinn (2020) WEBRip [H.264 / 1080p-LQ] [EN / KOR Sub] [PR]


  • Информация
    Посетители, находящиеся в группе Гости, не могут оставлять комментарии в данной новости.
    Главная страница | Регистрация | Добавить новость | Новое на сайте Copyright © 2019. bolt.mmix.club All Rights Reserved