Подписывайся на наш канал в Telegram https://t.me/torrentok и получи доступ к торрентам без ограничений!
. bolt.mmix.club
Авторские права
con...@...Показать
Вход на сайт
Логин:
Пароль:
 
Навигация по сайту
Популярные статьи

Торрент трекер | Скачать торрент | Скачать через Торрент | Скачать торрент бесплатно | Скачать торрент без регистрации КПК и мобильные торрент скачать Ретро-музей в Варне (Болгария) / Retro Museum in Varna (Bulgaria) (2018) HDRip [H.264] [MP4|1920x1080] торрент скачать бесплатно

Ретро-музей в Варне (Болгария) / Retro Museum in Varna (Bulgaria) (2018) HDRip [H.264] [MP4|1920x1080] торрент скачать бесплатно

КПК и мобильные торрент скачать
Ретро-музей в Варне (Болгария) / Retro Museum in Varna (Bulgaria) (2018) HDRip [H.264] [MP4|1920x1080]Производство: Россия, Болгария
Жанр: короткометражный
Режиссер: Денис Варламов

Описание

Ретро музей расположен в крупнейшем торговом центре Гранд Молл города Варна (Болгария), и занимает площадь в 4000 квадратных метров. Музей был основан бизнесменом Цветаном Атанасовым. В музейной выставке наиболее ярко представлена коллекция из более чем 50 автомобилей, таких брендов как Волга, Москвич, Шкода и т.д. В безукоризненно восстановленной форме. Звезда ретро-шоу в музее классики Чайка ГАЗ-13, на котором ездили участники Политбюро Коммунистической партии.
Продолжительность: 00: 03: 27
Качество видео: HDRip
Перевод: Не требуется (нет диалогов и озвученных комментариев)
Субтитры: отсутствуют
Видео: AVC/H.264, 1920x1080, ~23, 5 Mbps
Аудио: AAC, 2 ch, 320 Kbps
Format : MPEG-4
Format profile : Base Media
Codec ID : isom (isom/iso2/avc1/mp41)
File size : 588 MiB
Duration : 3 min 27 s
Overall bit rate : 23.8 Mb/s
Movie name : Ретро музей в Варне
Recorded date : 2018
Encoded date : UTC 2018-10-07 11: 06: 41
Tagged date : UTC 2018-10-07 11: 06: 41
Writing application : Lavf58.39.101
Copyright : Denis Varlamov
Comment : Denis Varlamov
Video
ID : 1
Format : AVC
Format/Info : Advanced Video Codec
Format profile : High@L5.1
Format settings, CABAC : Yes
Format settings, ReFrames : 2 frames
Codec ID : avc1
Codec ID/Info : Advanced Video Coding
Duration : 3 min 27 s
Bit rate : 23.5 Mb/s
Nominal bit rate : 25.0 Mb/s
Width : 1 920 pixels
Height : 1 080 pixels
Display aspect ratio : 16: 9
Frame rate mode : Constant
Frame rate : 25.000 FPS
Color space : YUV
Chroma subsampling : 4: 2: 0
Bit depth : 8 bits
Scan type : Progressive
Bits/(Pixel*Frame) : 0.452
Stream size : 580 MiB (99%)
Writing library : x264 core 159 r2991
Encoding settings : cabac=1/ref=2/deblock=1: 0: 0/analyse=0x3: 0x133/me=hex/subme=7/psy=1/psy_rd=1.00: 0.00/mixed_ref=0/me_range=16/chroma_me=1/trellis=1/8x8dct=1/cqm=0/deadzone=21, 11/fast_pskip=1/chroma_qp_offset=-2/threads=12/lookahead_threads=2/sliced_threads=0/nr=0/decimate=1/interlaced=0/bluray_compat=0/constrained_intra=0/bframes=3/b_pyramid=0/b_adapt=1/b_bias=0/direct=0/weightb=1/open_gop=0/weightp=2/keyint=250/keyint_min=25/scenecut=40/intra_refresh=0/rc_lookahead=40/rc=abr/mbtree=1/bitrate=25000/ratetol=1.0/qcomp=0.60/qpmin=10/qpmax=69/qpstep=4/vbv_maxrate=25500/vbv_bufsize=24000/nal_hrd=none/filler=0/ip_ratio=1.40/aq=3: 1.00
Language : Russian
Encoded date : UTC 2018-10-07 11: 06: 41
Tagged date : UTC 2018-10-07 11: 06: 41
Audio
ID : 2
Format : AAC
Format/Info : Advanced Audio Codec
Format profile : LC
Codec ID : 40
Duration : 3 min 27 s
Bit rate mode : Constant
Bit rate : 320 kb/s
Channel(s) : 2 channels
Channel positions : Front: L R
Sampling rate : 48.0 kHz
Frame rate : 46.875 FPS (1024 spf)
Compression mode : Lossy
Stream size : 7.92 MiB (1%)
Language : Russian
Default : Yes
Alternate group : 1
Encoded date : UTC 2018-10-07 11: 06: 41
Tagged date : UTC 2018-10-07 11: 06: 41
Скриншоты:




Все одноименные релизы в Клубе
Время раздачи: 24/7 (круглосуточно) (до появления первых 3-5 скачавших)
 
Уважаемый посетитель, Вы зашли на сайт как незарегистрированный пользователь. Мы рекомендуем Вам зарегистрироваться либо зайти на сайт под своим именем.

Другие новости по теме:



Информация
Посетители, находящиеся в группе Гости, не могут оставлять комментарии в данной новости.
Главная страница | Регистрация | Добавить новость | Новое на сайте Copyright © 2019. bolt.mmix.club All Rights Reserved