Подписывайся на наш канал в Telegram https://t.me/torrentok и получи доступ к торрентам без ограничений!
. bolt.mmix.club
Авторские права
con...@...Показать
Вход на сайт
Логин:
Пароль:
 
Навигация по сайту
Популярные статьи

Торрент трекер | Скачать торрент | Скачать через Торрент | Скачать торрент бесплатно | Скачать торрент без регистрации КПК и мобильные торрент скачать Адвокатъ Ардашевъ (2019-2020) WEB-DLRip [H.264] (сезон 1-3, серии 1-12 из 12) [MP4|1920x1080] торрент скачать бесплатно

Адвокатъ Ардашевъ (2019-2020) WEB-DLRip [H.264] (сезон 1-3, серии 1-12 из 12) [MP4|1920x1080] торрент скачать бесплатно

КПК и мобильные торрент скачать
Адвокатъ Ардашевъ (2019-2020) WEB-DLRip [H.264] (сезон 1-3, серии 1-12 из 12) [MP4|1920x1080]Производство: Россия/Свэлл Фильм, Кинокомпания Бумеранг
Жанр: Детектив
Режиссер: Сергей Мезенцев
Актеры: Антон Хабаров, Евгения Розанова, Андрей Градов, Глеб Подгородинский, Борис Эстрин, Алёна Коломина, Николай Денисов, Ксения Щербакова, Александр Зуев, Пётр Кудряшов, Сергей Лактюнькин, Александр Бобров, Максим Радугин, Александр Бобров

Описание

1907 год. Бывший чиновник по особым поручениям Клим Пантелеевич Ардашев выходит в отставку из-за серьезного ранения, которое получил при выполнении секретной миссии на Ближнем Востоке. Он переезжает из Петербурга в провинцию, где хочет вести спокойную и тихую жизнь, и вскоре становится знаменитым адвокатом. Он не проиграл ни одного процесса, его услугами мечтают воспользоваться многие. Однако стать клиентом Клима Пантелеевича непросто – и речь не о деньгах. У Ардашева есть жесткий принцип: он берется за дело только в том случае, если совершенно уверен в невиновности клиента.

Возраст: 12+ (зрителям, достигшим 12 лет)
Дата российской премьеры: 1 сезон 23.11.2019 ТВЦ, 2 сезон 04.04.2020 ТВЦ, 3 сезон 11.04.2020 ТВЦ
Продолжительность: ~00: 45: 00 серия
Качество видео: WEB-DLRip
Видео: AVC/H.264, 1920x1080, ~1250 Kbps
Аудио: AAC, 2 ch, 128 Kbps
Общее
Полное имя : I: 2.Advocat.Ardashev.S03.mp4
Формат : MPEG-4
Профиль формата : Base Media
Идентификатор кодека : isom (isom/iso2/avc1/mp41)
Размер файла : 442 Мбайт
Продолжительность : 45 м. 18 с.
Общий поток : 1364 Кбит/сек
Программа кодирования : Lavf58.33.100
Видео
Идентификатор : 1
Формат : AVC
Формат/Информация : Advanced Video Codec
Профиль формата : High@L4
Настройки формата : CABAC/3 Ref Frames
Параметр CABAC формата : Да
Параметр RefFrames формата : 3 кадра
Идентификатор кодека : avc1
Идентификатор кодека/Информация : Advanced Video Coding
Продолжительность : 45 м. 18 с.
Битрейт : 1229 Кбит/сек
Ширина : 1920 пикселей
Высота : 1080 пикселей
Соотношение сторон : 16: 9
Режим частоты кадров : Постоянный
Частота кадров : 25, 000 кадров/сек
Цветовое пространство : YUV
Субдискретизация насыщенности : 4: 2: 0
Битовая глубина : 8 бит
Тип развёртки : Прогрессивная
Бит/(Пиксели*Кадры) : 0.024
Размер потока : 398 Мбайт (90%)
Заголовок : ISO Media file produced by Google Inc.
Библиотека кодирования : x264 core 155 r2901 7d0ff22
Цветовой диапазон : Limited
Основные цвета : BT.709
Характеристики трансфера : BT.709
Коэффициенты матрицы : BT.709
Codec configuration box : avcC
Аудио
Идентификатор : 2
Формат : AAC LC
Формат/Информация : Advanced Audio Codec Low Complexity
Идентификатор кодека : mp4a-40-2
Продолжительность : 45 м. 18 с.
Вид битрейта : Постоянный
Битрейт : 128 Кбит/сек
Каналы : 2 канала
Channel layout : L R
Частота : 44, 1 КГц
Частота кадров : 43, 066 кадра/сек (1024 SPF)
Метод сжатия : С потерями
Размер потока : 41, 5 Мбайт (9%)
Заголовок : ISO Media file produced by Google Inc.
Язык : English
Default : Да
AlternateGroup/String : 1
Скриншоты:


Все одноименные релизы в Клубе
Время раздачи: с 09: 00 до 19: 00 (до появления первых 3-5 скачавших)
 
Уважаемый посетитель, Вы зашли на сайт как незарегистрированный пользователь. Мы рекомендуем Вам зарегистрироваться либо зайти на сайт под своим именем.

Другие новости по теме:

  • Адвокатъ Ардашевъ. Маскарад со смертью (2019) SATRip [H.264] (серии 1-4 из 4)
  • Адвокатъ Ардашевъ. Маскарад со смертью (2019) WEB-DLRip (серии 1-4 из 4)
  • Адвокатъ Ардашевъ. Убийство на водах (2019) WEB-DLRip (сезон 2, серии 1-4 из 4)
  • Адвокатъ Ардашевъ. Убийство на водах (2019) SATRip [H.264] (сезон 2, серии 1-4 из 4)
  • Адвокатъ Ардашевъ. Тайна персидского обоза (2019) SATRip [H.264] (сезон 3, серии 1-4 из 4)
  • Адвокатъ Ардашевъ. Тайна персидского обоза (2019) SATRip (сезон 3, серии 1-4 из 4)


  • Информация
    Посетители, находящиеся в группе Гости, не могут оставлять комментарии в данной новости.
    Главная страница | Регистрация | Добавить новость | Новое на сайте Copyright © 2019. bolt.mmix.club All Rights Reserved