Подписывайся на наш канал в Telegram https://t.me/torrentok и получи доступ к торрентам без ограничений!
. bolt.mmix.club
Авторские права
con...@...Показать
Вход на сайт
Логин:
Пароль:
 
Навигация по сайту
Популярные статьи

Торрент трекер | Скачать торрент | Скачать через Торрент | Скачать торрент бесплатно | Скачать торрент без регистрации КПК и мобильные торрент скачать Намедни. Наша эра. 1946-1960, 2004-2010 (2020) WEBRip [H.264] [MP4|1920x1080] (обновляемая) торрент скачать бесплатно

Намедни. Наша эра. 1946-1960, 2004-2010 (2020) WEBRip [H.264] [MP4|1920x1080] (обновляемая) торрент скачать бесплатно

КПК и мобильные торрент скачать
Намедни. Наша эра. 1946-1960, 2004-2010 (2020) WEBRip [H.264] [MP4|1920x1080] (обновляемая)Телекомпания: НТВ
Жанр: Документальный
Режиссер: Джаник Файзиев
Ведущий: Леонид Парфенов

Описание

Намедни 1946-1960, 2004-2010 - энциклопедия советской и российской жизни в изложении ведущего Леонида Парфенова. Большинство россиян чувствуют по-настоящему своей историю от времени послевоенного СССР. Тогдашняя державность - явный образец для подражания особо патриотичных элит. Так что эта эпоха - тоже прошлое, ставшее настоящим. И её события-люди-явления все чаще воспринимаются сегодня актуальными, почти вечными феноменами нашей жизни. Присутствует авторская реклама.
Продолжительность: 15x ~00: 35: 00, 3x ~01: 30: 00
Качество видео: WEBRip 1080p
Перевод: Оригинальный
Язык озвучки: Русский
Видео: AVC/H.264, 1920x1080, ~ 2500 kbps
Аудио: AAC, 2 ch, 128 kbps - русскийНамедни-1946 Холодная война. Москвич. Враги Ахматова и Зощенко. Эвита. Золотые зубы
Намедни-1947 МиГ и АК. Снова голод. Чёрная кошка. Огорожен соцлагерь. Трофейное кино. Москва-800
Намедни-1948 Бандит Тито. 7 слоников. Убит Михоэлс. Трофеи. Посадили Русланову. Опять двойка!
Намедни-1949 ГДР и ФРГ. Советский атом. АН-2 и КВН-49. Сталин-70. Кубанские казаки
Намедни-1950 Сталин и Мао. Домино. Война в Корее. Симонов. Пластинки на костях
Намедни-1951 Первые холодильники. Прима Уланова. Велик Орленок. Пал глава ГБ Абакумов.
Намедни-1952 Волго-Дон. Крепдешин. Последний съезд Сталина. Высотки. Королева Елизавета
Намедни-1953 ГАЗ-69. Умер Сталин. Восстание в ГДР. Враг Берия. ГУМ. Водородная бомба
Намедни-1954 Крым передали Украине. Оттепель. Шульженко. Целина. Индийское кино
Намедни-1955 Метро в Ленинграде. Стрельцов - легенда футбола. Признали ФРГ, ушли из Австрии. Министр Жуков.
Намедни-1956 Осуждён культ личности. Современник. Восстания в Тбилиси, Познани, Будапеште. Волга
Намедни-1957 Фестиваль. Подмосковные вечера. Спутник. Карлсон. ТВ на Шаболовке. Карнавальная ночь
Намедни-1958 Доктор Живаго. Бидструп и Эффель. Снова борьба с церковью. Летят журавли - золото Канн
Намедни-1959 Убит Бандера. Кастро на Кубе, де Голль во Франции. КрАЗ и Чайка. Бардо и Влади
Намедни-1960 Хрущёв с ботинком в ООН. Робертино Лорети. Сбит Пауэрс. Белка и Стрелка. Вон пижамы с улиц!
Намедни-2004 iPod. Майдан-1. Гришковец. Смешарики. Дом-2. Путин 2.0. Беслан. Онотоле. Ночной дозор
Намедни-2005 Гламур. ЖЖ. Фотошоп. Наши. Меркель. Монетизация. Валуев. Пробки. Хаматова
Намедни-2006 Запрет казино. YouTube. Удар Зидана. Кондопога. G8 в Спб. Хиддинк. Грузия - враг
Общее
Полное имя : E: FILMSZALIVНамедни1946-1960Намедни-1946 Холодная война. Москвич. Враги Ахматова и Зощенко. Эвита. Золотые зубы.mp4
Формат : MPEG-4
Профиль формата : Base Media
Идентификатор кодека : isom (isom/iso2/avc1/mp41)
Размер файла : 615 Мбайт
Продолжительность : 35 м. 21 с.
Общий поток : 2 432 Кбит/сек
Программа кодирования : Lavf56.40.101
Видео
Идентификатор : 1
Формат : AVC
Формат/Информация : Advanced Video Codec
Профиль формата : High@L4
Настройки формата : CABAC/3 Ref Frames
Параметр CABAC формата : Да
Параметр RefFrames формата : 3 кадра
Идентификатор кодека : avc1
Идентификатор кодека/Информация : Advanced Video Coding
Продолжительность : 35 м. 21 с.
Duration_FirstFrame : -40 мс.
Битрейт : 2 297 Кбит/сек
Ширина : 1 920 пикселей
Высота : 1 080 пикселей
Соотношение сторон : 16: 9
Режим частоты кадров : Переменный
Частота кадров : 25, 000 кадров/сек
Минимальная частота кадров : 25, 000 кадров/сек
Максимальная частота кадров : 25, 098 кадров/сек
Цветовое пространство : YUV
Субдискретизация насыщенности : 4: 2: 0
Битовая глубина : 8 бит
Тип развёртки : Прогрессивная
Бит/(Пиксели*Кадры) : 0.044
Размер потока : 581 Мбайт (94%)
Библиотека кодирования : x264 core 155 r2901 7d0ff22
Цветовой диапазон : Limited
Основные цвета : BT.709
Характеристики трансфера : BT.709
Коэффициенты матрицы : BT.709
Codec configuration box : avcC
Аудио
Идентификатор : 2
Формат : AAC LC
Формат/Информация : Advanced Audio Codec Low Complexity
Идентификатор кодека : mp4a-40-2
Продолжительность : 35 м. 21 с.
Вид битрейта : Постоянный
Битрейт : 128 Кбит/сек
Каналы : 2 канала
Channel layout : L R
Частота : 44, 1 КГц
Частота кадров : 43, 066 кадра/сек (1024 SPF)
Метод сжатия : С потерями
Размер потока : 32, 4 Мбайт (5%)
Default : Да
Alternate group : 1
Общее
Полное имя : E: FILMSZALIVНамедни2004-2010Намедни-2006 Запрет казино. YouTube. Удар Зидана. Кондопога. G8 в Спб. Хиддинк. Грузия - враг.mp4
Формат : MPEG-4
Профиль формата : Base Media
Идентификатор кодека : isom (isom/iso2/avc1/mp41)
Размер файла : 2, 33 Гбайт
Продолжительность : 1 ч. 37 м.
Общий поток : 3 422 Кбит/сек
Программа кодирования : Lavf58.20.100
Видео
Идентификатор : 1
Формат : AVC
Формат/Информация : Advanced Video Codec
Профиль формата : High@L4
Настройки формата : CABAC/3 Ref Frames
Параметр CABAC формата : Да
Параметр RefFrames формата : 3 кадра
Идентификатор кодека : avc1
Идентификатор кодека/Информация : Advanced Video Coding
Продолжительность : 1 ч. 37 м.
Duration_FirstFrame : -40 мс.
Битрейт : 3 288 Кбит/сек
Ширина : 1 920 пикселей
Высота : 1 080 пикселей
Соотношение сторон : 16: 9
Режим частоты кадров : Переменный
Частота кадров : 25, 000 кадров/сек
Минимальная частота кадров : 25, 000 кадров/сек
Максимальная частота кадров : 25, 014 кадров/сек
Цветовое пространство : YUV
Субдискретизация насыщенности : 4: 2: 0
Битовая глубина : 8 бит
Тип развёртки : Прогрессивная
Бит/(Пиксели*Кадры) : 0.063
Размер потока : 2, 23 Гбайт (96%)
Цветовой диапазон : Limited
Основные цвета : BT.709
Характеристики трансфера : BT.709
Коэффициенты матрицы : BT.709
Codec configuration box : avcC
Аудио
Идентификатор : 2
Формат : AAC LC
Формат/Информация : Advanced Audio Codec Low Complexity
Идентификатор кодека : mp4a-40-2
Продолжительность : 1 ч. 37 м.
Вид битрейта : Постоянный
Битрейт : 128 Кбит/сек
Каналы : 2 канала
Channel layout : L R
Частота : 44, 1 КГц
Частота кадров : 43, 066 кадра/сек (1024 SPF)
Метод сжатия : С потерями
Размер потока : 89, 1 Мбайт (4%)
Default : Да
Alternate group : 1
 
Уважаемый посетитель, Вы зашли на сайт как незарегистрированный пользователь. Мы рекомендуем Вам зарегистрироваться либо зайти на сайт под своим именем.

Другие новости по теме:



Информация
Посетители, находящиеся в группе Гости, не могут оставлять комментарии в данной новости.
Главная страница | Регистрация | Добавить новость | Новое на сайте Copyright © 2019. bolt.mmix.club All Rights Reserved