Подписывайся на наш канал в Telegram https://t.me/torrentok и получи доступ к торрентам без ограничений!
. bolt.mmix.club
Авторские права
con...@...Показать
Вход на сайт
Логин:
Пароль:
 
Навигация по сайту
Популярные статьи

Торрент трекер | Скачать торрент | Скачать через Торрент | Скачать торрент бесплатно | Скачать торрент без регистрации КПК и мобильные торрент скачать Последний министр (2020) WEBRip [H.264] (сезон 1, серии 1-2 из 16) [MP4|1280x534] (обновляемая) торрент скачать бесплатно

Последний министр (2020) WEBRip [H.264] (сезон 1, серии 1-2 из 16) [MP4|1280x534] (обновляемая) торрент скачать бесплатно

КПК и мобильные торрент скачать
Последний министр (2020) WEBRip [H.264] (сезон 1, серии 1-2 из 16) [MP4|1280x534] (обновляемая)Производство: Россия/Продюсерская компания Среда
Жанр: комедия
Режиссер: Роман Волобуев
Актеры: Ян Цапник, Ольга Сутулова, Нелли Уварова, Сергей Епишев, Анна Шепелева, Софья Лебедева, Алексей Золотовицкий, Дарья Носик, Екатерина Носик, Сергей Степин

Описание

Когда министром перспективного планирования назначают деятельного неудачника, никто представить не может, к чему это приведёт. Оказывается, новый министр действительно хочет изменить жизнь людей к лучшему и для этого вместе с командой активно продвигает собственные инициативы. Правда, инициативы эти не всегда разумны, а результат — крайне непредсказуем.

Возраст: 18+ (зрителям, достигшим 18 лет. запрещено для детей)
Дата российской премьеры: 26.03.2020
Продолжительность: ~00: 23: 00 серия
Качество видео: WEBRip
Внимание! Присутствует ненормативная лексика.
Видео: AVC/H.264, 1280x534, ~1069 kbps
Аудио #1: AAC, 2 ch, 112 kbps - русский (без цензуры)
Аудио #2: AAC, 2 ch, 115 kbps - русский
General
Complete name : D: VideoSerialsПоследний министр (2020) Сезон 1e01s01.mp4
Format : MPEG-4
Format profile : Base Media
Codec ID : isom (isom/iso2/avc1/mp41)
File size : 428 MiB
Duration : 45 min 51 s
Overall bit rate : 1 304 kb/s
Writing application : Lavf58.12.100
Video
ID : 1
Format : AVC
Format/Info : Advanced Video Codec
Format profile : High@L5.1
Format settings : CABAC/2 Ref Frames
Format settings, CABAC : Yes
Format settings, Reference frames : 2 frames
Codec ID : avc1
Codec ID/Info : Advanced Video Coding
Duration : 45 min 50 s
Bit rate : 1 069 kb/s
Width : 1 280 pixels
Height : 534 pixels
Display aspect ratio : 2.40: 1
Original display aspect ratio : 2.40: 1
Frame rate mode : Constant
Frame rate : 23.976 (23976/1000) FPS
Color space : YUV
Chroma subsampling : 4: 2: 0
Bit depth : 8 bits
Scan type : Progressive
Bits/(Pixel*Frame) : 0.065
Stream size : 351 MiB (82%)
Codec configuration box : avcC
Audio #1
ID : 2
Format : AAC LC
Format/Info : Advanced Audio Codec Low Complexity
Codec ID : mp4a-40-2
Duration : 45 min 51 s
Duration_LastFrame : -19 ms
Bit rate mode : Constant
Bit rate : 112 kb/s
Channel(s) : 2 channels
Channel layout : L R
Sampling rate : 48.0 kHz
Frame rate : 46.875 FPS (1024 SPF)
Compression mode : Lossy
Stream size : 36.8 MiB (9%)
Language : Russian
Default : Yes
Alternate group : 1
Audio #2
ID : 3
Format : AAC LC
Format/Info : Advanced Audio Codec Low Complexity
Codec ID : mp4a-40-2
Duration : 45 min 50 s
Duration_LastFrame : -8 ms
Bit rate mode : Constant
Bit rate : 115 kb/s
Channel(s) : 2 channels
Channel layout : L R
Sampling rate : 48.0 kHz
Frame rate : 46.875 FPS (1024 SPF)
Compression mode : Lossy
Stream size : 37.6 MiB (9%)
Language : Russian
Default : No
Alternate group : 1
Скриншоты:


Все одноименные релизы в Клубе
Время раздачи: 24/7 (до появления первых 3-5 скачавших)
 
Уважаемый посетитель, Вы зашли на сайт как незарегистрированный пользователь. Мы рекомендуем Вам зарегистрироваться либо зайти на сайт под своим именем.

Другие новости по теме:

  • Последний министр (2020) WEBRip (сезон 1, серии 1-2 из 16) (обновляемая)
  • Последний министр (2020) WEBRip [H.264 / 1080p-LQ] (сезон 1, серии 1-2 из 16) (обновляемая)
  • Последний морской министр империи (2003) DVB
  • Последний морской министр империи (2007) DVBRip [H.264]


  • Информация
    Посетители, находящиеся в группе Гости, не могут оставлять комментарии в данной новости.
    Главная страница | Регистрация | Добавить новость | Новое на сайте Copyright © 2019. bolt.mmix.club All Rights Reserved