Подписывайся на наш канал в Telegram https://t.me/torrentok и получи доступ к торрентам без ограничений!
. bolt.mmix.club
Авторские права
con...@...Показать
Вход на сайт
Логин:
Пароль:
 
Навигация по сайту
Популярные статьи

Торрент трекер | Скачать торрент | Скачать через Торрент | Скачать торрент бесплатно | Скачать торрент без регистрации КПК и мобильные торрент скачать Поймать Кайдаша (2019) HDRip [H.264] (сезон 1, серии 1-12 из 12) [MP4|1280x720] [UKR] торрент скачать бесплатно

Поймать Кайдаша (2019) HDRip [H.264] (сезон 1, серии 1-12 из 12) [MP4|1280x720] [UKR] торрент скачать бесплатно

КПК и мобильные торрент скачать
Поймать Кайдаша (2019) HDRip [H.264] (сезон 1, серии 1-12 из 12) [MP4|1280x720] [UKR]Производство: Украина, СТБ
Жанр: Драма
Режиссер: Александр Тименко
Актеры: Виктор Жданов, Ирина Мак, Тарас Цымбалюк, Григорий Бакланов, Антонина Хижняк, Дарина Федина, Юлия Врублевськая

Описание

Сериал по мотивам произведения И. Нечуй-Левицкого Кайдашева семья
Продолжительность: ~00: 50: 00 серия
Качество видео: HDRip
Язык: Украинский
Видео: AVC/H.264, 1280х720, ~2232 Kbps
Аудио: AAC, 2 ch, 128 Kbps - украинский
General
Complete name : E: _SMART-TVСпіймати КайдашаСпіймати Кайдаша 1 серія.mp4
Format : MPEG-4
Format profile : Base Media
Codec ID : isom (isom/iso2/avc1/mp41)
File size : 888 MiB
Duration : 52 min 26 s
Overall bit rate : 2 366 kb/s
Writing application : Lavf58.34.101
Video
ID : 1
Format : AVC
Format/Info : Advanced Video Codec
Format profile : High@L3.1
Format settings : CABAC/5 Ref Frames
Format settings, CABAC : Yes
Format settings, Reference : 5 frames
Codec ID : avc1
Codec ID/Info : Advanced Video Coding
Duration : 52 min 26 s
Bit rate : 2 232 kb/s
Width : 1 280 pixels
Height : 720 pixels
Display aspect ratio : 16: 9
Frame rate mode : Constant
Frame rate : 25.000 FPS
Color space : YUV
Chroma subsampling : 4: 2: 0
Bit depth : 8 bits
Scan type : Progressive
Bits/(Pixel*Frame) : 0.097
Stream size : 837 MiB (94%)
Writing library : x264 core 158
Encoding settings : cabac=1/ref=5/deblock=1: 0: 0/analyse=0x3: 0x113/me=umh/subme=8/psy=1/psy_rd=1.00: 0.00/mixed_ref=1/me_range=16/chroma_me=1/trellis=1/8x8dct=1/cqm=0/deadzone=21, 11/fast_pskip=1/chroma_qp_offset=-2/threads=22/lookahead_threads=3/sliced_threads=0/nr=0/decimate=1/interlaced=0/bluray_compat=0/constrained_intra=0/bframes=3/b_pyramid=2/b_adapt=2/b_bias=0/direct=3/weightb=1/open_gop=0/weightp=2/keyint=250/keyint_min=25/scenecut=40/intra_refresh=0/rc_lookahead=50/rc=crf/mbtree=1/crf=20.0/qcomp=0.60/qpmin=5/qpmax=69/qpstep=4/vbv_maxrate=2750/vbv_bufsize=7500/crf_max=0.0/nal_hrd=none/filler=0/ip_ratio=1.41/aq=1: 1.00
Language : English
Codec configuration box : avcC
Audio
ID : 2
Format : AAC LC
Format/Info : Advanced Audio Codec Low Complexity
Codec ID : mp4a-40-2
Duration : 52 min 26 s
Bit rate mode : Constant
Bit rate : 128 kb/s
Channel(s) : 2 channels
Channel layout : L R
Sampling rate : 48.0 kHz
Frame rate : 46.875 FPS (1024 SPF)
Compression mode : Lossy
Stream size : 48.0 MiB (5%)
Language : English
Default : Yes
Alternate group : 1
Скриншоты:


Все одноименные релизы в Клубе
Время раздачи: 10-23 (до появления первых 3-5 скачавших)
 
Уважаемый посетитель, Вы зашли на сайт как незарегистрированный пользователь. Мы рекомендуем Вам зарегистрироваться либо зайти на сайт под своим именем.

Другие новости по теме:

  • Как поймать перо Жар-Птицы (2013) BDRemux [1080p] скачать через торрент бесплатно
  • Поймать шпиона / To Trap a Spy (1964) DVDRip [H.264]
  • Как поймать монстра / Lost River (2014) WEB-DL [H.264 / 720p-LQ] [EN / RU Sub] скачать через торрент бесплатно
  • Как поймать монстра / Lost River (2014) WEB-DL [H.264 / 720p-LQ] скачать через торрент бесплатно
  • Как поймать монстра / Lost River (2014) WEB-DLRip [Line] скачать через торрент бесплатно
  • Как поймать монстра / Lost River (2014) BDRip [H.264 / 1080p] [Line] скачать через торрент бесплатно
  • Как поймать монстра / Lost River (2014) BDRemux [H.264 / 1080p] [Line] скачать через торрент бесплатно
  • Как поймать монстра / Lost River (2014) BDRemux [H.264 / 1080p] [VO] скачать через торрент бесплатно


  • Информация
    Посетители, находящиеся в группе Гости, не могут оставлять комментарии в данной новости.
    Главная страница | Регистрация | Добавить новость | Новое на сайте Copyright © 2019. bolt.mmix.club All Rights Reserved