Подписывайся на наш канал в Telegram https://t.me/torrentok и получи доступ к торрентам без ограничений!
. bolt.mmix.club
Авторские права
con...@...Показать
Вход на сайт
Логин:
Пароль:
 
Навигация по сайту
Популярные статьи

Торрент трекер | Скачать торрент | Скачать через Торрент | Скачать торрент бесплатно | Скачать торрент без регистрации КПК и мобильные торрент скачать Проект "Синяя книга" / Проект засекречен / Project Blue Book (2019-2020) WEB-DLRip [H.264] (сезон 1-2, серии 1-19 из 20) LostFilm [MP4|1280x720] торрент скачать бесплатно

Проект "Синяя книга" / Проект засекречен / Project Blue Book (2019-2020) WEB-DLRip [H.264] (сезон 1-2, серии 1-19 из 20) LostFilm [MP4|1280x720] торрент скачать бесплатно

КПК и мобильные торрент скачать
Проект Синяя книга / Проект засекречен / Project Blue Book (2019-2020) WEB-DLRip [H.264] (сезон 1-2, серии 1-19 из 20) LostFilm [MP4|1280x720]Производство: США, Канада/IMN Creative, A+E Studios, Compari Entertainment
Жанр: фантастика, триллер, драма, детектив
Режиссер: Норма Бэйли, Томас Картер, Алекс Грейвз
Актеры: Эйдан Гиллен, Майкл Маларки, Лаура Меннелл, Ксения Соло, Нил МакДонаф, Майкл Харни, Николас Холмс, Джилл Моррисон, Иэн Трейси, Роберт Джон Бёрк и др.

Описание

Продолжение сериала снятого в жанре научной фантастики и основанного на данных о реальном проекте Военно-воздушных сил США Синяя книга.
Пятидесятые годы прошлого века. Астроном Дж. Аллен Хинек и капитан ВВС США Майкл Квинн разбираются со свидетельствами появления НЛО. В ходе расследования они натыкаются на правительственный заговор, скрывающий от населения правду.

Продолжительность: ~00: 45: 00 серия
Качество видео: WEB-DLRip
Перевод: Многоголосый закадровый, профессиональный -LostFilm
Видео: AVC/H.264, 1280x720 (16: 9), ~4000 Kbps
Аудио: AAC, 2 ch, 252 Kbps - русский (многоголосый закадровый)
Полное имя : D: Project_Blue_Book_(all.sezon\'s)_WEB-DLRip720p_LostFilm_NNM-CLUBсезон 1Project.Blue.Book.S01E01.720p.rus.LostFilm.TV.mp4
Формат : MPEG-4
Профиль формата : Base Media
Идентификатор кодека : isom (isom)
Размер файла : 1, 32 Гбайт
Продолжительность : 44 м.
Режим общего битрейта : Переменный
Общий поток : 4255 Кбит/сек
Коллекция : Проект Синяя книга
Сезон : 1
Альбом : Проект Синяя книга, Сезон 1
Альбом/Исполнитель : Проект Синяя книга
Часть : 1
Часть/Положение : 1
Трек : Воздушный бой Фуллера
Трек/Положение : 1
Исполнитель : Проект Синяя книга
Жанр : Drama
Тип содержимого : TV Show
Дата записи : 2019
Дата кодирования : UTC 2019-01-13 18: 36: 53
Дата пометки : UTC 2019-01-13 18: 36: 53
Программа кодирования : Yamb 2.1.0.0 http://yamb.unite-video.com/LostCoder
Авторское право : LostFilm.TV(c)
Обложка : Yes
Примечание : События разворачиваются во времена расцвета Холодной войны. Правительство прикладывает невероятные усилия, чтобы замалчивать необъяснимые явления, возникающие по всей стране.
Part_ID : 101
Видео
Идентификатор : 1
Формат : AVC
Формат/Информация : Advanced Video Codec
Профиль формата : High@L4.1
Параметр CABAC формата : Да
Параметр ReFrames формата : 4 кадра
Идентификатор кодека : avc1
Идентификатор кодека/Информация : Advanced Video Coding
Продолжительность : 44 м.
Битрейт : 4000 Кбит/сек
Максимальный битрейт : 33, 7 Мбит/сек
Ширина : 1280 пикселей
Высота : 720 пикселей
Соотношение сторон : 16: 9
Режим частоты кадров : Постоянный
Частота кадров : 23, 976 (24000/1001) кадра/сек
Частота кадров в оригинале : 23, 976 (23976/1000) кадра/сек
Цветовое пространство : YUV
Субдискретизация насыщенности : 4: 2: 0
Битовая глубина : 8 бит
Тип развёртки : Прогрессивная
Бит/(Пиксели*Кадры) : 0.181
Размер потока : 1, 24 Гбайт (94%)
Заголовок : Imported with GPAC 0.4.6-DEV (internal rev. 5)
Библиотека кодирования : x264 core 112 r1834 a51816a
Настройки программы : cabac=1/ref=4/deblock=1: -3: -2/analyse=0x3: 0x113/me=hex/subme=7/psy=1/psy_rd=1.00: 0.00/mixed_ref=1/me_range=16/chroma_me=1/trellis=1/8x8dct=1/cqm=0/deadzone=21, 11/fast_pskip=1/chroma_qp_offset=-2/threads=12/sliced_threads=0/nr=0/decimate=1/interlaced=0/constrained_intra=0/bframes=5/b_pyramid=2/b_adapt=1/b_bias=0/direct=1/weightb=1/open_gop=0/weightp=2/keyint=250/keyint_min=25/scenecut=40/intra_refresh=0/rc_lookahead=40/rc=2pass/mbtree=1/bitrate=4000/ratetol=1.0/qcomp=0.60/qpmin=0/qpmax=51/qpstep=4/cplxblur=20.0/qblur=0.5/vbv_maxrate=10000/vbv_bufsize=256000/ip_ratio=1.40/aq=1: 1.00/nal_hrd=none
Аудио
Идентификатор : 2
Формат : AAC
Формат/Информация : Advanced Audio Codec
Профиль формата : LC
Идентификатор кодека : 40
Продолжительность : 44 м.
Вид битрейта : Переменный
Битрейт : 252 Кбит/сек
Максимальный битрейт : 310 Кбит/сек
Каналы : 2 канала
Расположение каналов : Front: L R
Частота : 48, 0 КГц
Частота кадров : 46, 875 кадров/сек (1024 spf)
Метод сжатия : С потерями
Размер потока : 79, 9 Мбайт (6%)
 
Уважаемый посетитель, Вы зашли на сайт как незарегистрированный пользователь. Мы рекомендуем Вам зарегистрироваться либо зайти на сайт под своим именем.

Другие новости по теме:

  • Проект засекречен / Проект "Синяя книга" / Project Blue Book (2019) WEB-DLRip (сезон 1, серии 1 из 10) Кириллица (обновляемая)
  • Проект засекречен / Проект "Синяя книга" / Project Blue Book (2019) WEBRip (сезон 1, серии 1 из 10) BaibaKo (обновляемая) [AD]
  • Проект засекречен / Проект "Синяя книга" / Project Blue Book (2019) WEBRip [H.264 / 1080p-LQ] (сезон 1, серии 1 из 10) OMSKBIRD (обновляемая) [AD]
  • Проект засекречен / Проект "Синяя книга" / Project Blue Book (2019) WEB-DL [H.264 / 1080p-LQ] (сезон 1, серии 1 из 10) Кириллица (обновляемая)
  • Проект засекречен / Проект "Синяя книга" / Project Blue Book (2019) WEB-DLRip (сезон 1, серии 1 из 10) LostFilm (обновляемая)
  • Проект засекречен / Проект "Синяя книга" / Project Blue Book (2019) WEBRip [H.264 / 1080p-LQ] (сезон 1, серии 1 из 10) TVShows (обновляемая)
  • Проект засекречен / Проект "Синяя книга" / Project Blue Book (2019) WEB-DL [H.264 / 1080p-LQ] (сезон 1, серии 1-3 из 10) LostFilm (обновляемая)
  • Проект засекречен / Проект "Синяя книга" / Project Blue Book (2019) WEBRip [H.265 / 1080p-LQ] [HDR] (сезон 1, серии 1-6 из 10) BaibaKo [AD] (обновляемая)


  • Информация
    Посетители, находящиеся в группе Гости, не могут оставлять комментарии в данной новости.
    Главная страница | Регистрация | Добавить новость | Новое на сайте Copyright © 2019. bolt.mmix.club All Rights Reserved