Подписывайся на наш канал в Telegram https://t.me/torrentok и получи доступ к торрентам без ограничений!
. bolt.mmix.club
Авторские права
con...@...Показать
Вход на сайт
Логин:
Пароль:
 
Навигация по сайту
Популярные статьи

Торрент трекер | Скачать торрент | Скачать через Торрент | Скачать торрент бесплатно | Скачать торрент без регистрации Фильмы торрент скачать Любовница в наследство (2020) WEBRip (сезон 1, серии 1-4 из 4) торрент скачать бесплатно

Любовница в наследство (2020) WEBRip (сезон 1, серии 1-4 из 4) торрент скачать бесплатно

Фильмы торрент скачать
Любовница в наследство (2020) WEBRip (сезон 1, серии 1-4 из 4)Производство: Украина/Кинокомпания Star Media
Жанр: Мелодрама, детектив
Режиссер: Александр Будённый

Актеры
Ольга Гришина, Сергей Комаровский, Артемий Егоров, Артём Позняк, Екатерина Вайвала, Владимир Лилицкий, Алёна Тимкова, Николай Кий

Описание

Последние пятнадцать лет Татьяна жила в уверенности, что все радости в ее жизни навсегда и никуда никогда не денутся: любимый муж-бизнесмен, достаток, размеренный быт и неспешное течение будней. Но одним вечером ей сообщили, что Олег погиб, упав с крыши офисного здания. После этой потери у Татьяны открываются глаза на многие вещи...
Релиз от: Files-x
Продолжительность: ~00: 46: 00 серия
Качество видео: WEBRip
Язык озвучки: русский
Видео: Xvid, 720x400, ~1600 Kbps
Аудио: AC3, 2 ch, 192 Kbps
Общее
Полное имя : D: ЗагруженныеЛюбовница в наследство.s01.(2020).WEBRip.by.Nicodem.Files-x1.Любовница в наследство.s01.E01.(2020).WEBRip.by.Nicodem.Files-x.avi
Формат : AVI
Формат/Информация : Audio Video Interleave
Размер файла : 610 Мбайт
Продолжительность : 46 м. 55 с.
Общий поток : 1 818 Кбит/сек
Программа кодирования : VirtualDubMod 1.5.10.3 |www.virtualdub-fr.org|| (build 2550/release)
Библиотека кодирования : VirtualDubMod build 2550/release
Видео
Идентификатор : 0
Формат : MPEG-4 Visual
Профиль формата : Advanced Simple@L5
Настройки формата : BVOP1/Custom Matrix
Параметр BVOP формата : 1
Параметр QPel формата : Нет
Параметр GMC формата : Без точки перехода
Параметр матрицы формата : Выборочная
Идентификатор кодека : XVID
Идентификатор кодека/Подсказка : XviD
Продолжительность : 46 м. 55 с.
Битрейт : 1 617 Кбит/сек
Ширина : 720 пикселей
Высота : 400 пикселей
Соотношение сторон : 16: 9
Частота кадров : 25, 000 кадров/сек
Цветовое пространство : YUV
Субдискретизация насыщенности : 4: 2: 0
Битовая глубина : 8 бит
Тип развёртки : Прогрессивная
Метод сжатия : С потерями
Бит/(Пиксели*Кадры) : 0.225
Размер потока : 543 Мбайт (89%)
Библиотека кодирования : XviD 73
Аудио
Идентификатор : 1
Формат : AC-3
Формат/Информация : Audio Coding 3
Коммерческое название : Dolby Digital
Идентификатор кодека : 2000
Продолжительность : 46 м. 55 с.
Вид битрейта : Постоянный
Битрейт : 192 Кбит/сек
Каналы : 2 канала
Channel layout : L R
Частота : 48, 0 КГц
Частота кадров : 31, 250 кадров/сек (1536 SPF)
Метод сжатия : С потерями
Размер потока : 64, 4 Мбайт (11%)
Выравнивание : Разделение по промежуткам
Продолжительность промежутка : 40 мс. (1, 00 видеокадр)
Время предзагрузки промежутка : 500 мс.
Service kind : Complete Main

Скриншоты для ознакомления



Все одноименные релизы в Клубе
Время раздачи: 24/7 (мультитрекерная раздача) (до появления первых 3-5 скачавших)
 
Уважаемый посетитель, Вы зашли на сайт как незарегистрированный пользователь. Мы рекомендуем Вам зарегистрироваться либо зайти на сайт под своим именем.

Другие новости по теме:

  • Любовница в наследство (2020) WEBRip [H.264] (сезон 1, серии 1-2 из 4) (обновляемая)


  • Информация
    Посетители, находящиеся в группе Гости, не могут оставлять комментарии в данной новости.
    Главная страница | Регистрация | Добавить новость | Новое на сайте Copyright © 2019. bolt.mmix.club All Rights Reserved