Подписывайся на наш канал в Telegram https://t.me/torrentok и получи доступ к торрентам без ограничений!
. bolt.mmix.club
Авторские права
con...@...Показать
Вход на сайт
Логин:
Пароль:
 
Навигация по сайту
Популярные статьи

Торрент трекер | Скачать торрент | Скачать через Торрент | Скачать торрент бесплатно | Скачать торрент без регистрации Фильмы торрент скачать Север / Sever (2019) WEB-DLRip (сезон 1, серии 1-6 из 6) ViruseProject [AD] торрент скачать бесплатно

Север / Sever (2019) WEB-DLRip (сезон 1, серии 1-6 из 6) ViruseProject [AD] торрент скачать бесплатно

Фильмы торрент скачать
Север / Sever (2019) WEB-DLRip (сезон 1, серии 1-6 из 6) ViruseProject [AD]Производство: Чехия/Ceská Televize
Жанр: драма, криминал
Режиссер: Роберт Седлачек

Актеры
Иржи Мадл, Элишка Крженкова, Robert Rasa, Штепан Бенони, Мартин Хавелка, Джастин Свобода, Алес Билик, Мартин Пехлат, Петра Шпалкова, Роман Лукнар и д.р.

Описание

Чешский мини-сериал Север - это история многообещающего детектива по имени Пётр Свобода, который верит в справедливость и честь. Верный своим жизненным принципам он не остаётся равнодушным к продажности своего начальства на протяжении всех 6-ти серий. Сериал через несколько сюжетных линий с неожиданными поворотами показывает, каким образом функционирует сильнейшая государственная силовая организация при всех её уровнях, связях и соперничестве. И позволяет понять, что помимо уставов существует ряд неписаных правил, не соблюдая которые, герой сталкивается с определёнными последствиями. Авторы черпали вдохновение из романов Артура Хейли (Аэропорт, Отель, Вечерние новости) и из реальной истории детектива из Северной Богемии.


Релиз от: ViruseProject
Продолжительность: ~00: 55: 00 серия
Качество видео: WEB-DLRip
Перевод: Двуголосый закадровый (ViruseProject)
Субтитры: Русские (отдельно)
Реклама: Присутствуют видео, аудио вставки рекламы
Видео: XviD, 720x400 (16: 9), ~1600 Kbps
Аудио #1: MP3, 2 ch, 128 Kbps - русский
Аудио #2: MP3, 2 ch, 128 Kbps - чешский
Общее
Полное имя : F: ОЗВУЧКА888-ЗАЛИВ-888Sever.S01.ViruseProjectSever.S01.400p.ViruseProjectSever.S01E01.400p.WEB-DLRip.ViruseProject.avi
Формат : AVI
Формат/Информация : Audio Video Interleave
Размер файла : 784 Мбайт
Продолжительность : 58 м. 32 с.
Режим общего битрейта : Переменный
Общий поток : 1 873 Кбит/сек
Программа кодирования : VirtualDubMod 1.5.10.2 (build 2540/release)
Библиотека кодирования : VirtualDubMod build 2540/release
Видео
Идентификатор : 0
Формат : MPEG-4 Visual
Профиль формата : Advanced Simple@L5
Настройки формата : BVOP2
Параметр BVOP формата : 2
Параметр QPel формата : Нет
Параметр GMC формата : Без точки перехода
Параметр матрицы формата : Default (H.263)
Идентификатор кодека : XVID
Идентификатор кодека/Подсказка : XviD
Продолжительность : 58 м. 32 с.
Битрейт : 1 600 Кбит/сек
Ширина : 720 пикселей
Высота : 400 пикселей
Соотношение сторон : 16: 9
Частота кадров : 29, 970 (30000/1001) кадров/сек
Цветовое пространство : YUV
Субдискретизация насыщенности : 4: 2: 0
Битовая глубина : 8 бит
Тип развёртки : Прогрессивная
Метод сжатия : С потерями
Бит/(Пиксели*Кадры) : 0.185
Размер потока : 670 Мбайт (85%)
Библиотека кодирования : XviD 69
Аудио #1
Идентификатор : 1
Формат : MPEG Audio
Версия формата : Version 1
Профиль формата : Layer 3
Настройки формата : Joint stereo/MS Stereo
Идентификатор кодека : 55
Идентификатор кодека/Подсказка : MP3
Продолжительность : 58 м. 32 с.
Вид битрейта : Переменный
Битрейт : 128 Кбит/сек
Каналы : 2 канала
Частота : 48, 0 КГц
Частота кадров : 41, 667 кадра/сек (1152 SPF)
Метод сжатия : С потерями
Размер потока : 53, 6 Мбайт (7%)
Выравнивание : Соединение по промежуткам
Продолжительность промежутка : 33 мс. (1, 00 видеокадр)
Время предзагрузки промежутка : 504 мс.
Библиотека кодирования : LAME3.99.5
Аудио #2
Идентификатор : 2
Формат : MPEG Audio
Версия формата : Version 1
Профиль формата : Layer 3
Настройки формата : Joint stereo/MS Stereo
Идентификатор кодека : 55
Идентификатор кодека/Подсказка : MP3
Продолжительность : 58 м. 32 с.
Вид битрейта : Постоянный
Битрейт : 128 Кбит/сек
Каналы : 2 канала
Частота : 48, 0 КГц
Метод сжатия : С потерями
Размер потока : 53, 6 Мбайт (7%)
Выравнивание : Разделение по промежуткам
Продолжительность промежутка : 33 мс. (1, 00 видеокадр)
Время предзагрузки промежутка : 500 мс.
Библиотека кодирования : LAME3.100

Скриншоты для ознакомления



Все одноименные релизы в Клубе
Время раздачи: с 10: 00 до 24: 00 (до появления первых 3-5 скачавших)
 
Уважаемый посетитель, Вы зашли на сайт как незарегистрированный пользователь. Мы рекомендуем Вам зарегистрироваться либо зайти на сайт под своим именем.

Другие новости по теме:

  • Север / Sever (2019) WEB-DLRip [H.264 / 1080p-LQ] (сезон 1, серии 1-6 из 6) ViruseProject [AD]


  • Информация
    Посетители, находящиеся в группе Гости, не могут оставлять комментарии в данной новости.
    Главная страница | Регистрация | Добавить новость | Новое на сайте Copyright © 2019. bolt.mmix.club All Rights Reserved