Подписывайся на наш канал в Telegram https://t.me/torrentok и получи доступ к торрентам без ограничений!
. bolt.mmix.club
Авторские права
con...@...Показать
Вход на сайт
Логин:
Пароль:
 
Навигация по сайту
Популярные статьи

Торрент трекер | Скачать торрент | Скачать через Торрент | Скачать торрент бесплатно | Скачать торрент без регистрации Фильмы торрент скачать Каменская (2011) HDTVRip [H.264 / 1080p-LQ] (сезон 6, серии 1-12 из 12) торрент скачать бесплатно

Каменская (2011) HDTVRip [H.264 / 1080p-LQ] (сезон 6, серии 1-12 из 12) торрент скачать бесплатно

Фильмы торрент скачать
Каменская (2011) HDTVRip [H.264 / 1080p-LQ] (сезон 6, серии 1-12 из 12)Производство: Россия/Компания Рекун-ТВ
Жанр: криминал, детектив
Режиссер: Марат Ким, Егор Анашкин

Актеры
Елена Яковлева, Андрей Ильин, Олег Андреев, Станислав Дужников, Дмитрий Нагиев, Вероника Лысакова, Сергей Никоненко, Андрей Панин, Ирина Розанова, Лидия Милюзина.

Описание

В этом сезон любимого сериалае Каменская станет руководителем аналитического отдела Петровки. Её помощниками станут Доценко и Дюжин, а бессменным начальником остаётся полковник Гордеев. Настя Каменская отметит юбилей, займется танцами и найдет и нового поклонника! В премьерных сериях у Каменской появится новый постоянный член команды - Дюжин. Этого чудаковатого, увлеченного мистикой следователя Каменская возьмет под свою опеку. Также в премьерных сериях появится знакомый Насти, участковый милиционер - Игорь Дорошин. Молодой следователь работает в милиции из романтических побуждений, хочет защитить слабых, и это дело для него почти хобби, потому что деньги Дорошин зарабатывает другим способом - сочинением песен.


Возраст: 16+ (зрителям, достигшим 16 лет)
Продолжительность: ~00: 43: 00 серия
Качество видео: HDTVRip
Видео: AVC/H.264, 1920x1080, ~4000 Kbps
Аудио: AC3, 2 ch, 192 kbps
Общее
Уникальный идентификатор : 300840918323693394504494525351409395094 (0xE253DA72806811DA0AEADE191B4EA596)
Полное имя : D: ЗагруженныеКаменская-61. Вспомнить - нельзя (1 сер.).mkv
Формат : Matroska
Версия формата : Version 4
Размер файла : 1, 28 Гбайт
Продолжительность : 43 м. 36 с.
Общий поток : 4 194 Кбит/сек
Дата кодирования : UTC 2020-10-29 06: 59: 58
Программа кодирования : mkvmerge v51.0.0 (\'I Wish\') 64-bit
Библиотека кодирования : libebml v1.4.0 + libmatroska v1.6.2
Видео
Идентификатор : 1
Формат : AVC
Формат/Информация : Advanced Video Codec
Профиль формата : High@L4
Настройки формата : CABAC/4 Ref Frames
Параметр CABAC формата : Да
Параметр RefFrames формата : 4 кадра
Идентификатор кодека : V_MPEG4/ISO/AVC
Продолжительность : 43 м. 36 с.
Битрейт : 4 000 Кбит/сек
Ширина : 1 920 пикселей
Высота : 1 080 пикселей
Соотношение сторон : 16: 9
Режим частоты кадров : Постоянный
Частота кадров : 25, 000 кадров/сек
Цветовое пространство : YUV
Субдискретизация насыщенности : 4: 2: 0
Битовая глубина : 8 бит
Тип развёртки : Прогрессивная
Бит/(Пиксели*Кадры) : 0.077
Размер потока : 1, 22 Гбайт (95%)
Библиотека кодирования : x264 core 161 r3027 4121277
Настройки программы : cabac=1/ref=4/deblock=1: 4: 4/analyse=0x3: 0x133/me=umh/subme=10/psy=1/psy_rd=1.00: 0.00/mixed_ref=1/me_range=24/chroma_me=1/trellis=2/8x8dct=1/cqm=0/deadzone=21, 11/fast_pskip=1/chroma_qp_offset=-2/threads=9/lookahead_threads=1/sliced_threads=0/nr=0/decimate=1/interlaced=0/bluray_compat=0/constrained_intra=0/bframes=6/b_pyramid=2/b_adapt=2/b_bias=0/direct=3/weightb=1/open_gop=0/weightp=2/keyint=250/keyint_min=25/scenecut=40/intra_refresh=0/rc_lookahead=60/rc=2pass/mbtree=1/bitrate=4000/ratetol=1.0/qcomp=0.60/qpmin=0/qpmax=69/qpstep=4/cplxblur=20.0/qblur=0.5/ip_ratio=1.40/aq=1: 1.00
Default : Да
Forced : Нет
Аудио
Идентификатор : 2
Формат : AC-3
Формат/Информация : Audio Coding 3
Коммерческое название : Dolby Digital
Идентификатор кодека : A_AC3
Продолжительность : 43 м. 36 с.
Вид битрейта : Постоянный
Битрейт : 192 Кбит/сек
Каналы : 2 канала
Channel layout : L R
Частота : 48, 0 КГц
Частота кадров : 31, 250 кадров/сек (1536 SPF)
Метод сжатия : С потерями
Размер потока : 59, 9 Мбайт (5%)
Service kind : Complete Main
Default : Да
Forced : Нет

Скриншоты для ознакомления



Все одноименные релизы в Клубе
Время раздачи: 24/7 (мультитрекерная раздача) (до появления первых 3-5 скачавших)
 
Уважаемый посетитель, Вы зашли на сайт как незарегистрированный пользователь. Мы рекомендуем Вам зарегистрироваться либо зайти на сайт под своим именем.

Другие новости по теме:

  • Юрий Каменский, Вера Каменская | Чиновник для особых поручений (2019) [FB2]
  • Каменская 5 (2008) (12 серий из 12) DVDRip
  • Елена Николаевна Каменская | Основы психологии. Курс лекций (2003) [PDF]


  • Информация
    Посетители, находящиеся в группе Гости, не могут оставлять комментарии в данной новости.
    Главная страница | Регистрация | Добавить новость | Новое на сайте Copyright © 2019. bolt.mmix.club All Rights Reserved