Подписывайся на наш канал в Telegram https://t.me/torrentok и получи доступ к торрентам без ограничений!
. bolt.mmix.club
Авторские права
con...@...Показать
Вход на сайт
Логин:
Пароль:
 
Навигация по сайту
Популярные статьи

Торрент трекер | Скачать торрент | Скачать через Торрент | Скачать торрент бесплатно | Скачать торрент без регистрации Фильмы торрент скачать Темное желание / Dark Desire (2020) WEBRip [H.264 / 1080p-LQ] (сезон 1, серии 1-18 из 18) ViruseProject [AD] торрент скачать бесплатно

Темное желание / Dark Desire (2020) WEBRip [H.264 / 1080p-LQ] (сезон 1, серии 1-18 из 18) ViruseProject [AD] торрент скачать бесплатно

Фильмы торрент скачать
Темное желание / Dark Desire (2020) WEBRip [H.264 / 1080p-LQ] (сезон 1, серии 1-18 из 18) ViruseProject [AD]Производство: Мексика
Жанр: триллер, драма, детектив
Режиссер: Кенья Маркес, Педро Пабло Ибарра

Актеры
Майте Перрони Беорлеги, Эрик Айсер, Хорхе Поса, Алехандро Спейцер, Мария Фернанда Йепес, Рехина Павон, Летисия Уихара, Элихио Мелендес, Samantha Orozco, Эстебан Соберанес и д.р.

Описание

Преуспевающий юрист и профессор колледжа, замужняя женщина Альма Соларес едет навестить свою лучшую подругу на выходных, чтобы помочь последней оправиться после развода. Во время поездки Альма знакомится с 23-летним красавцем Дарио Гуэрру, с которым происходит краткое, но полное страсти свидание. Женщина возвращается домой к мужу и дочери, полная намерений забыть свою ошибку и жить дальше, как прежде. Но ее надежды тщетны и жизнь превращается в настоящий ад...


Релиз от: ViruseProject
Продолжительность: ~00: 40: 00 серия
Качество видео: WEBRip 1080p
Перевод: Двуголосый закадровый (ViruseProject)
Субтитры: Русские
Реклама: Присутствуют видео, аудио вставки рекламы
Видео: AVC/H.264, 1920x960 (2, 000), ~3898 Kbps
Аудио #1: AC3, 2 ch, 192 Kbps - русский
Аудио #2: AAC, 2 ch, 192 Kbps - испанский
Общее
Уникальный идентификатор : 244450610128714215304238358407185177370 (0xB7E77999684F2D09AC24F071A6A01B1A)
Полное имя : F: ОЗВУЧКА888-ЗАЛИВ-888Dark.Desire.S01.ViruseProjectDark.Desire.S01.1080p.ViruseProjectDark.Desire.S01E01.1080p.WEBRip.ViruseProject.mkv
Формат : Matroska
Версия формата : Version 4
Размер файла : 1, 21 Гбайт
Продолжительность : 40 м. 17 с.
Общий поток : 4 282 Кбит/сек
Дата кодирования : UTC 2020-10-30 09: 10: 12
Программа кодирования : mkvmerge v8.3.0 (\'Over the Horizon\') 64bit
Библиотека кодирования : libebml v1.3.1 + libmatroska v1.4.2
Видео
Идентификатор : 1
Формат : AVC
Формат/Информация : Advanced Video Codec
Профиль формата : High@L4.2
Настройки формата : CABAC/4 Ref Frames
Параметр CABAC формата : Да
Параметр RefFrames формата : 4 кадра
Идентификатор кодека : V_MPEG4/ISO/AVC
Продолжительность : 40 м. 17 с.
Битрейт : 3 898 Кбит/сек
Ширина : 1 920 пикселей
Высота : 960 пикселей
Соотношение сторон : 2, 000
Режим частоты кадров : Постоянный
Частота кадров : 23, 976 (24000/1001) кадра/сек
Цветовое пространство : YUV
Субдискретизация насыщенности : 4: 2: 0
Битовая глубина : 8 бит
Тип развёртки : Прогрессивная
Бит/(Пиксели*Кадры) : 0.088
Размер потока : 1, 10 Гбайт (91%)
Язык : English
Default : Да
Forced : Нет
Цветовой диапазон : Limited
Основные цвета : BT.709
Характеристики трансфера : BT.709
Коэффициенты матрицы : BT.709
Аудио #1
Идентификатор : 2
Формат : AC-3
Формат/Информация : Audio Coding 3
Коммерческое название : Dolby Digital
Идентификатор кодека : A_AC3
Продолжительность : 40 м. 16 с.
Вид битрейта : Постоянный
Битрейт : 192 Кбит/сек
Каналы : 2 канала
Channel layout : L R
Частота : 48, 0 КГц
Частота кадров : 31, 250 кадров/сек (1536 SPF)
Метод сжатия : С потерями
Размер потока : 55, 3 Мбайт (4%)
Заголовок : ViruseProject
Язык : Russian
Service kind : Complete Main
Default : Да
Forced : Нет
Аудио #2
Идентификатор : 3
Формат : AAC LC
Формат/Информация : Advanced Audio Codec Low Complexity
Идентификатор кодека : A_AAC-2
Продолжительность : 40 м. 17 с.
Битрейт : 192 Кбит/сек
Каналы : 2 канала
Channel layout : L R
Частота : 48, 0 КГц
Частота кадров : 46, 875 кадров/сек (1024 SPF)
Метод сжатия : С потерями
Размер потока : 54, 6 Мбайт (4%)
Язык : Spanish
Default : Нет
Forced : Нет
Текст
Идентификатор : 4
Формат : UTF-8
Идентификатор кодека : S_TEXT/UTF8
Идентификатор кодека/Информация : UTF-8 Plain Text
Продолжительность : 38 м. 4 с.
Битрейт : 79 бит/сек
Count of elements : 461
Размер потока : 22, 2 Кбайт (0%)
Язык : Russian
Default : Нет
Forced : Нет

Скриншоты для ознакомления



Все одноименные релизы в Клубе
Время раздачи: с 10: 00 до 24: 00 (до появления первых 3-5 скачавших)
 
Уважаемый посетитель, Вы зашли на сайт как незарегистрированный пользователь. Мы рекомендуем Вам зарегистрироваться либо зайти на сайт под своим именем.

Другие новости по теме:

  • Темное желание / Dark Desire (2020) WEBRip (сезон 1, серии 1-18 из 18) ViruseProject [AD]


  • Информация
    Посетители, находящиеся в группе Гости, не могут оставлять комментарии в данной новости.
    Главная страница | Регистрация | Добавить новость | Новое на сайте Copyright © 2019. bolt.mmix.club All Rights Reserved