Подписывайся на наш канал в Telegram https://t.me/torrentok и получи доступ к торрентам без ограничений!
. bolt.mmix.club
Авторские права
con...@...Показать
Вход на сайт
Логин:
Пароль:
 
Навигация по сайту
Популярные статьи

Торрент трекер | Скачать торрент | Скачать через Торрент | Скачать торрент бесплатно | Скачать торрент без регистрации Фильмы торрент скачать Новенький (2020) WEB-DLRip (сезон 1, серии 1-4 из 8) (обновляемая) торрент скачать бесплатно

Новенький (2020) WEB-DLRip (сезон 1, серии 1-4 из 8) (обновляемая) торрент скачать бесплатно

Фильмы торрент скачать
Новенький (2020) WEB-DLRip (сезон 1, серии 1-4 из 8) (обновляемая)Производство: Россия/Док-Синема
Жанр: Драма
Режиссер: Оксана Барковская, Ирина Гурьянова

Актеры
Глеб Калюжный, Анна Демидова, Виталий Щербина, Елизавета Запорожец, Иван Рысин, Екатерина Абразакова, Иван Непомнящий, Артем Давыдов, Ярослав Копыстыринский, Анка Бессонова

Описание

Город Юровск потрясён исчезновением 16-летнего Максима Плетнёва. Подростки то и дело сбегают из дома, но это не тот случай. Максим — мальчик-мажор, переехавший из Москвы, и новенький в 10 Б. Из-за развода родителей старшекласснику пришлось оставить престижный московский лицей и перебраться в эту глухомань, где никто и слыхом не слыхивал о факультативах и спецкурсах. За год новенький не только не завёл друзей, но и настроил против себя весь класс. Молчание его одноклассников только подтверждает самые худшие опасения родителей — с Максимом что-то случилось. Куда пропал новенький и кто в этом виноват? Школьный психолог, переживающий лишь за собственную диссертацию? Учительница, которая давно поняла, что идти против стаи бесполезно? Весь этот год подросток жил в атмосфере всеобщей травли, итогом которой становится целая череда событий во время празднования дня рождения его одноклассницы — дочери местного начальника полиции. Этот город, погрязший в коррупции и насилии, надёжно оберегает свои секреты, и один из них в том, что Макс — не первая жертва и, если ничего не изменить, не последняя.

Возраст: 16+ (зрителям, достигшим 16 лет)
Дата российской премьеры: 11 октября 2020
Релиз от: Kuzmich
Продолжительность: ~00: 39: 00 серия
Качество видео: WEB-DLRip
Видео: AVC/H.264, 720x304, ~1496 Kbps
Аудио: AC3, 2 ch, 192 Kbps
Общее
Полное имя : D: ВидеоtorrrentNovenkiy.2020.WEB-DLRip.25KuzmichNovenkiy.e01.WEB-DLRip.25Kuzmich.avi
Формат : AVI
Формат/Информация : Audio Video Interleave
Размер файла : 600 Мбайт
Продолжительность : 49 м. 25 с.
Общий поток : 1698 Кбит/сек
Программа кодирования : VirtualDubMod 1.5.10.3 |www.virtualdub-fr.org|| (build 2550/release)
Библиотека кодирования : VirtualDubMod build 2550/release
Видео
Идентификатор : 0
Формат : MPEG-4 Visual
Профиль формата : Advanced Simple@L5
Параметр BVOP формата : 1
Параметр QPel формата : Нет
Параметр GMC формата : Без точки перехода
Параметр матрицы формата : Default (MPEG)
Идентификатор кодека : XVID
Идентификатор кодека/Подсказка : XviD
Продолжительность : 49 м. 25 с.
Битрейт : 1496 Кбит/сек
Ширина : 720 пикселей
Высота : 304 пикселя
Соотношение сторон : 2, 35: 1
Частота кадров : 25, 000 кадров/сек
Цветовое пространство : YUV
Субдискретизация насыщенности : 4: 2: 0
Битовая глубина : 8 бит
Тип развёртки : Прогрессивная
Метод сжатия : С потерями
Бит/(Пиксели*Кадры) : 0.273
Размер потока : 529 Мбайт (88%)
Библиотека кодирования : XviD 73
Аудио
Идентификатор : 1
Формат : AC-3
Формат/Информация : Audio Coding 3
Параметр Endianness формата : Big
Идентификатор кодека : 2000
Продолжительность : 49 м. 25 с.
Вид битрейта : Постоянный
Битрейт : 192 Кбит/сек
Каналы : 2 канала
Расположение каналов : Front: L R
Частота : 48, 0 КГц
Частота кадров : 31, 250 кадров/сек (1536 SPF)
Битовая глубина : 16 бит
Метод сжатия : С потерями
Размер потока : 67, 9 Мбайт (11%)
Выравнивание : Разделение по промежуткам
Продолжительность промежутка : 40 мс. (1, 00 видеокадр)
Время предзагрузки промежутка : 500 мс.
ServiceKind/String : Complete Main

Скриншоты для ознакомления



Все одноименные релизы в Клубе
Время раздачи: 24/7 (до появления первых 3-5 скачавших)
 
Уважаемый посетитель, Вы зашли на сайт как незарегистрированный пользователь. Мы рекомендуем Вам зарегистрироваться либо зайти на сайт под своим именем.

Другие новости по теме:

  • Новенький (2020) WEB-DLRip [H.264] (сезон 1, серии 1-7 из 7 + послесловие)


  • Информация
    Посетители, находящиеся в группе Гости, не могут оставлять комментарии в данной новости.
    Главная страница | Регистрация | Добавить новость | Новое на сайте Copyright © 2019. bolt.mmix.club All Rights Reserved