Подписывайся на наш канал в Telegram https://t.me/torrentok и получи доступ к торрентам без ограничений!
. bolt.mmix.club
Авторские права
con...@...Показать
Вход на сайт
Логин:
Пароль:
 
Навигация по сайту
Популярные статьи

Торрент трекер | Скачать торрент | Скачать через Торрент | Скачать торрент бесплатно | Скачать торрент без регистрации Фильмы торрент скачать Гори, гори, моя звезда (1969) DVDRip [H.264] [PR] торрент скачать бесплатно

Гори, гори, моя звезда (1969) DVDRip [H.264] [PR] торрент скачать бесплатно

Фильмы торрент скачать
Гори, гори, моя звезда (1969) DVDRip [H.264] [PR]Производство: СССР/Мосфильм
Жанр: Драма, Мелодрама, Комедия
Режиссер: Александр Митта

Актеры
Олег Табаков, Елена Проклова, Олег Ефремов, Леонид Дьячков, Леонид Куравлев, Владимир Наумов, Евгений Леонов, Марлен Хуциев, Константин Воинов, Нонна Мордюкова, Александр Пороховщиков, Александр Филиппенко, Павел Винник

Описание

Герой ленты, режиссер-самоучка, энтузиаст нового революционного искусства Искремас (искусство — революционным массам) посвятил свою жизнь театру. Он начал свою деятельность в провинциальном городке, который переходил из рук в руки: красных теснили белые, белых — зеленые.


Возраст: 0+ (для любой зрительской аудитории)
Рейтинг MPAA: PG-13 (детям до 13 лет просмотр нежелателен)
Продолжительность: 01: 28: 55
Качество видео: DVDRip
Язык озвучки: Русский, Английский, Французский
Субтитры: Отсутствуют
Видео: AVC/H.264, 700x476@700x524, ~1940 kbps
Аудио 1: AAC, 6 ch, 252 kbps, Русский
Аудио 2: AC3, 6 ch, 576 kbps, Русский
Аудио 3: AC3, 6 ch, 576 kbps, Английский (закадровый)
Аудио 4: AC3, 6 ch, 576 kbps, Французский (закадровый)
General
Unique ID : 198856850723709279686796061924853763350 (0x959A6FB45743D3A09ADD43E525774D16)
Complete name : D: Torrent_DownloadGori.gori.moya.zvezda.1969.x264_Rus_Eng_Fre.mkv
Format : Matroska
Format version : Version 4
File size : 2.44 GiB
Duration : 1 h 28 min
Overall bit rate : 3 924 kb/s
Encoded date : UTC 2020-10-30 07: 28: 21
Writing application : mkvmerge v8.4.0 (\'A better way to fly\') 32bit
Writing library : libebml v1.3.1 + libmatroska v1.4.2
Video
ID : 1
Format : AVC
Format/Info : Advanced Video Codec
Format profile : High@L4
Format settings : CABAC/16 Ref Frames
Format settings, CABAC : Yes
Format settings, Reference frames : 16 frames
Codec ID : V_MPEG4/ISO/AVC
Duration : 1 h 28 min
Bit rate : 1 941 kb/s
Width : 700 pixels
Height : 476 pixels
Display aspect ratio : 4: 3
Original display aspect ratio : 4: 3
Frame rate mode : Constant
Frame rate : 25.000 FPS
Color space : YUV
Chroma subsampling : 4: 2: 0
Bit depth : 8 bits
Scan type : Progressive
Bits/(Pixel*Frame) : 0.233
Stream size : 1.21 GiB (49%)
Writing library : x264 core 124 r2197 69a0443
Encoding settings : cabac=1/ref=16/deblock=1: -1: -1/analyse=0x3: 0x133/me=umh/subme=9/psy=1/psy_rd=1.00: 0.15/mixed_ref=1/me_range=16/chroma_me=1/trellis=2/8x8dct=1/cqm=0/deadzone=21, 11/fast_pskip=0/chroma_qp_offset=-3/threads=3/sliced_threads=0/nr=0/decimate=0/interlaced=0/bluray_compat=0/constrained_intra=0/bframes=8/b_pyramid=2/b_adapt=2/b_bias=0/direct=1/weightb=1/open_gop=0/weightp=2/keyint=250/keyint_min=25/scenecut=40/intra_refresh=0/rc_lookahead=60/rc=crf/mbtree=1/crf=19.5/qcomp=0.60/qpmin=10/qpmax=51/qpstep=4/ip_ratio=1.40/aq=1: 1.00
Default : Yes
Forced : No
Color range : Limited
Color primaries : BT.601 PAL
Transfer characteristics : BT.470 System B/G
Matrix coefficients : BT.470 System B/G
Audio #1
ID : 2
Format : AAC LC
Format/Info : Advanced Audio Codec Low Complexity
Codec ID : A_AAC-2
Duration : 1 h 28 min
Bit rate : 252 kb/s
Channel(s) : 6 channels
Channel layout : C L R Ls Rs LFE
Sampling rate : 48.0 kHz
Frame rate : 46.875 FPS (1024 SPF)
Compression mode : Lossy
Stream size : 160 MiB (6%)
Language : Russian
Default : Yes
Forced : No
Audio #2
ID : 3
Format : AC-3
Format/Info : Audio Coding 3
Commercial name : Dolby Digital
Codec ID : A_AC3
Duration : 1 h 28 min
Bit rate mode : Constant
Bit rate : 576 kb/s
Channel(s) : 6 channels
Channel layout : L R C LFE Ls Rs
Sampling rate : 48.0 kHz
Frame rate : 31.250 FPS (1536 SPF)
Compression mode : Lossy
Stream size : 366 MiB (15%)
Language : Russian
Service kind : Complete Main
Default : No
Forced : No
Audio #3
ID : 4
Format : AC-3
Format/Info : Audio Coding 3
Commercial name : Dolby Digital
Codec ID : A_AC3
Duration : 1 h 28 min
Bit rate mode : Constant
Bit rate : 576 kb/s
Channel(s) : 6 channels
Channel layout : L R C LFE Ls Rs
Sampling rate : 48.0 kHz
Frame rate : 31.250 FPS (1536 SPF)
Compression mode : Lossy
Stream size : 366 MiB (15%)
Language : English
Service kind : Complete Main
Default : No
Forced : No
Audio #4
ID : 5
Format : AC-3
Format/Info : Audio Coding 3
Commercial name : Dolby Digital
Codec ID : A_AC3
Duration : 1 h 28 min
Bit rate mode : Constant
Bit rate : 576 kb/s
Channel(s) : 6 channels
Channel layout : L R C LFE Ls Rs
Sampling rate : 48.0 kHz
Frame rate : 31.250 FPS (1536 SPF)
Compression mode : Lossy
Stream size : 366 MiB (15%)
Language : French
Service kind : Complete Main
Default : No
Forced : No
Menu
00: 00: 00.000 : en: Performance
00: 07: 27.033 : en: Krysya
00: 11: 53.066 : en: Painter
00: 16: 21.566 : en: Premises
00: 21: 32.066 : en: In the house
00: 25: 47.066 : en: Fire
00: 30: 51.767 : en: Whites in the city
00: 36: 23.834 : en: Rehearsal
00: 42: 24.201 : en: Friend
00: 45: 15.701 : en: Artists
00: 53: 45.035 : en: Death
01: 00: 35.702 : en: Cuckoo
01: 04: 51.403 : en: Reds in the city
01: 09: 14.137 : en: Jeanne d\'Arc
01: 15: 18.971 : en: Bandits in the city
01: 24: 14.939 : en: Epilogue
 
Уважаемый посетитель, Вы зашли на сайт как незарегистрированный пользователь. Мы рекомендуем Вам зарегистрироваться либо зайти на сайт под своим именем.

Другие новости по теме:

  • Гори, гори, моя звезда (1969) DVB [H.264 / 1080i-LQ]
  • Гори, гори ясно / Brightburn (2019) CamRip [MVO] [AD]
  • Гори, гори ясно / Brightburn (2019) WEBRip [MVO]
  • Гори, гори ясно / Brightburn (2019) WEBRip [H.264 / 1080p] [MVO]
  • Гори, гори ясно / Brightburn (2019) WEB-DL [H.264 / 1080p-LQ]
  • Гори, гори ясно / Brightburn (2019) WEB-DLRip [H.264]
  • Гори, гори ясно / Brightburn (2019) WEB-DLRip [576p] iPad
  • Гори, гори ясно / Brightburn (2019) WEB-DL [1080p] ATV


  • Информация
    Посетители, находящиеся в группе Гости, не могут оставлять комментарии в данной новости.
    Главная страница | Регистрация | Добавить новость | Новое на сайте Copyright © 2019. bolt.mmix.club All Rights Reserved