Подписывайся на наш канал в Telegram https://t.me/torrentok и получи доступ к торрентам без ограничений!
. bolt.mmix.club
Авторские права
con...@...Показать
Вход на сайт
Логин:
Пароль:
 
Навигация по сайту
Популярные статьи

Торрент трекер | Скачать торрент | Скачать через Торрент | Скачать торрент бесплатно | Скачать торрент без регистрации Фильмы торрент скачать Битлджюс (Битлджус) / Beetle Juice (1988) BDRip [H.264 / 1080p] торрент скачать бесплатно

Битлджюс (Битлджус) / Beetle Juice (1988) BDRip [H.264 / 1080p] торрент скачать бесплатно

Фильмы торрент скачать
Битлджюс (Битлджус) / Beetle Juice (1988) BDRip [H.264 / 1080p]Производство: США/The Geffen Company
Жанр: фэнтези, комедия
Режиссер: Тим Бёртон

Актеры
Алек Болдуин, Джина Дэвис, Майкл Китон, Вайнона Райдер, Энни МакЭнро, Морис Пейдж, Хьюго Стэнджер, Рэйчел Миттелман, Кэтрин О’Хара, Марк Эттлингер, Джеффри Джонс, Гленн Шэдикс, Патрис Мартинез, Синди Дэйли, Дуглас Тернер

Описание

Что сделает пара непрофессиональных привидений, когда их добрую Новую Англию наводнят снобы из Нью-Йорка? Они наймут частного био-экзорциста, чтобы изгнать пришельцев. И результат превзойдет все ожидания!


Возраст: 12+ (зрителям, достигшим 12 лет)
Рейтинг MPAA: PG (рекомендуется присутствие родителей)
Продолжительность: 01: 32: 06
Качество видео: BDRip
Перевод: Дублированный, профессиональный многоголосый, авторский (Михалёв)
Субтитры: Russian, English
Видеокодек: AVC/H.264
Битрейт видео: ~10830 kbps
Размер кадра: 1920x1080
Аудио №1: Russian; AC3; 384 kbps; 6 ch; Дубляж
Аудио №2: Russian; AC3; 384 kbps; 6 ch; Многоголосый закадровый
Аудио №3: Russian; DTS; 1509 kbps; 6 ch; Одноголосый закадровый, Михалев
Аудио №4: DTS; 1509 kbps; 6 ch; ОригиналFormat : Matroska
File size : 9.41 GiB
Duration : 1h 32mn
Overall bit rate : 14.6 Mbps
Encoded date : UTC 2011-03-20 07: 04: 50
Writing application : mkvmerge v4.6.0 (\'Still Crazy After All These Years\') built on Mar 10 2011 02: 50: 32
Writing library : libebml v1.2.0 + libmatroska v1.1.0
Video
ID : 1
Format : AVC
Format/Info : Advanced Video Codec
Format profile : High@L4.1
Format settings, CABAC : Yes
Format settings, ReFrames : 4 frames
Muxing mode : Container profile=Unknown@4.1
Codec ID : V_MPEG4/ISO/AVC
Duration : 1h 32mn
Bit rate : 10.8 Mbps
Width : 1 920 pixels
Height : 1 080 pixels
Display aspect ratio : 16: 9
Frame rate : 23.976 fps
Color space : YUV
Chroma subsampling : 4: 2: 0
Bit depth : 8 bits
Scan type : Progressive
Bits/(Pixel*Frame) : 0.218
Stream size : 6.78 GiB (72%)
Writing library : x264 core 65 r1057M 5f8a149
Encoding settings : cabac=1/ref=4/deblock=1: -2: -2/analyse=0x3: 0x113/me=umh/subme=9/psy_rd=1.0: 0.0/mixed_ref=1/me_range=32/chroma_me=1/trellis=2/8x8dct=1/cqm=0/deadzone=21, 11/chroma_qp_offset=-2/threads=12/nr=0/decimate=0/mbaff=0/bframes=3/b_pyramid=0/b_adapt=2/b_bias=0/direct=3/wpredb=1/keyint=250/keyint_min=25/scenecut=40(pre)/rc=2pass/bitrate=10830/ratetol=1.0/qcomp=0.60/qpmin=10/qpmax=51/qpstep=4/cplxblur=20.0/qblur=0.5/vbv_maxrate=50000/vbv_bufsize=50000/ip_ratio=1.40/pb_ratio=1.30/aq=1: 1.30
Language : English
Audio #1
ID : 2
Format : AC-3
Format/Info : Audio Coding 3
Mode extension : CM (complete main)
Codec ID : A_AC3
Duration : 1h 32mn
Bit rate mode : Constant
Bit rate : 384 Kbps
Channel(s) : 6 channels
Channel positions : Front: L C R, Side: L R, LFE
Sampling rate : 48.0 KHz
Bit depth : 16 bits
Stream size : 253 MiB (3%)
Title : Dub
Language : Russian
Audio #2
ID : 3
Format : AC-3
Format/Info : Audio Coding 3
Mode extension : CM (complete main)
Codec ID : A_AC3
Duration : 1h 32mn
Bit rate mode : Constant
Bit rate : 384 Kbps
Channel(s) : 6 channels
Channel positions : Front: L C R, Side: L R, LFE
Sampling rate : 48.0 KHz
Bit depth : 16 bits
Stream size : 253 MiB (3%)
Title : MVO
Language : Russian
Audio #3
ID : 4
Format : DTS
Format/Info : Digital Theater Systems
Codec ID : A_DTS
Duration : 1h 32mn
Bit rate mode : Constant
Bit rate : 1 510 Kbps
Channel(s) : 6 channels
Channel positions : Front: L C R, Side: L R, LFE
Sampling rate : 48.0 KHz
Bit depth : 24 bits
Video delay : 11ms
Stream size : 995 MiB (10%)
Title : AVO (Михалев)
Language : Russian
Audio #4
ID : 5
Format : DTS
Format/Info : Digital Theater Systems
Codec ID : A_DTS
Duration : 1h 32mn
Bit rate mode : Constant
Bit rate : 1 510 Kbps
Channel(s) : 6 channels
Channel positions : Front: L C R, Side: L R, LFE
Sampling rate : 48.0 KHz
Bit depth : 24 bits
Video delay : 11ms
Stream size : 995 MiB (10%)
Language : English
Text #1
ID : 6
Format : UTF-8
Codec ID : S_TEXT/UTF8
Codec ID/Info : UTF-8 Plain Text
Title : русский, Tycoon
Language : Russian
Text #2
ID : 7
Format : UTF-8
Codec ID : S_TEXT/UTF8
Codec ID/Info : UTF-8 Plain Text
Title : русский
Language : Russian
Text #3
ID : 8
Format : UTF-8
Codec ID : S_TEXT/UTF8
Codec ID/Info : UTF-8 Plain Text
Title : русский
Language : Russian
Text #4
ID : 9
Format : UTF-8
Codec ID : S_TEXT/UTF8
Codec ID/Info : UTF-8 Plain Text
Title : русский
Language : Russian
Text #5
ID : 10
Format : UTF-8
Codec ID : S_TEXT/UTF8
Codec ID/Info : UTF-8 Plain Text
Title : Английский
Language : English
Скриншоты для ознакомления


Время раздачи: 24/7 - круглосуточно)
 
Уважаемый посетитель, Вы зашли на сайт как незарегистрированный пользователь. Мы рекомендуем Вам зарегистрироваться либо зайти на сайт под своим именем.

Другие новости по теме:

  • Битлджюс (Битлджус) / Beetle Juice (1988) BDRip [H.264]
  • Битлджюс (Битлджус) / Beetle Juice (1988) UHD BDRemux [H.265 / 2160p] [4K, HDR, 10-bit]


  • Информация
    Посетители, находящиеся в группе Гости, не могут оставлять комментарии в данной новости.
    Главная страница | Регистрация | Добавить новость | Новое на сайте Copyright © 2019. bolt.mmix.club All Rights Reserved