Подписывайся на наш канал в Telegram https://t.me/torrentok и получи доступ к торрентам без ограничений!
. bolt.mmix.club
Авторские права
con...@...Показать
Вход на сайт
Логин:
Пароль:
 
Навигация по сайту
Популярные статьи

Торрент трекер | Скачать торрент | Скачать через Торрент | Скачать торрент бесплатно | Скачать торрент без регистрации Фильмы торрент скачать Клаустрофобы: Квест в Москве / Follow Me (2020) BDRip [H.264] торрент скачать бесплатно

Клаустрофобы: Квест в Москве / Follow Me (2020) BDRip [H.264] торрент скачать бесплатно

Фильмы торрент скачать
Клаустрофобы: Квест в Москве / Follow Me (2020) BDRip [H.264]Производство: США/Escape Productions
Жанр: Ужасы, триллер
Режиссер: Уилл Верник

Актеры
Кигэн Аллен, Холлэнд Роден, Дензел Уитакер, Ронен Рубинштейн, Павел Лычников, Джордж Янко, Сия, Данияр, Димитар Маринов, Эмилия Арес Зорян

Описание
Популярный американский видеоблогер Коул сделал имя на участии в самых зрелищных и опасных испытаниях, которые он находит по всему миру. На 10-летие своего канала он непременно хочет устроить что-нибудь особенное, и друзья предлагают ему пройти необычный квест в Москве. Поначалу Коул настроен скептически. Квест? Кого этим сейчас можно удивить? Узнав, что данные испытания разработали специально для него, парень воодушевляется, но квест окажется намного страшнее, чем он мог предположить.


Возраст: 18+ (зрителям, достигшим 18 лет. запрещено для детей)
Рейтинг MPAA: R (лицам до 17 лет обязательно присутствие взрослого)
Дата мировой премьеры: 11 июля 2020
Дата российской премьеры: 24 сентября 2020
Релиз от: mikos
Продолжительность: 01: 31: 44
Качество видео: BDRip
Перевод: Дублированный (iTunes)
Субтитры: Английские (SDH)
Видео: AVC/H.264, 1024x428, ~1675 kbps, 0.159 b/px, 24.000 fps
Аудио 1: AC3, 6 ch, 384 kbps - Русский (iTunes)
Аудио 2: AC3, 6 ch, 448 kbps - Английский
x264 info: frame I: 1370 Avg QP: 12.53 size: 59250
x264 info: frame P: 29371 Avg QP: 15.90 size: 17921
x264 info: frame B: 101664 Avg QP: 17.80 size: 5327
----------------------------------------------------------------------------------------
General
Unique ID : 202111437730178829801211168170088062650 (0x980D3F3B92D66F0C0695E1F263FBDEBA)
Complete name : E: Торрент Follow Me 2020.BDRip.AVC.DUB.mikos.mkv
Format : Matroska
Format version : Version 4
File size : 1.61 GiB
Duration : 1 h 32 min
Overall bit rate : 2 499 kb/s
Movie name : Follow Me 2020.BDRip.AVC.DUB.mikos
Encoded date : UTC 2020-10-30 11: 05: 43
Writing application : mkvmerge v51.0.0 (\'I Wish\') 64-bit
Writing library : libebml v1.4.0 + libmatroska v1.6.2
Cover : Yes
Attachments : cover
Video
ID : 1
Format : AVC
Format/Info : Advanced Video Codec
Format profile : High@L4.1
Format settings : CABAC/11 Ref Frames
Format settings, CABAC : Yes
Format settings, Reference frames : 11 frames
Codec ID : V_MPEG4/ISO/AVC
Duration : 1 h 32 min
Bit rate : 1 675 kb/s
Width : 1 024 pixels
Height : 428 pixels
Display aspect ratio : 2.40: 1
Frame rate mode : Constant
Frame rate : 23.976 (24000/1001) FPS
Color space : YUV
Chroma subsampling : 4: 2: 0
Bit depth : 8 bits
Scan type : Progressive
Bits/(Pixel*Frame) : 0.159
Stream size : 1.07 GiB (67%)
Title : Рип от mikos
Writing library : x264 core 159 r2991 1771b55
Encoding settings : cabac=1/ref=11/deblock=1: -2: -1/analyse=0x3: 0x133/me=umh/subme=11/psy=1/psy_rd=1.00: 0.08/mixed_ref=1/me_range=32/chroma_me=1/trellis=2/8x8dct=1/cqm=0/deadzone=21, 11/fast_pskip=0/chroma_qp_offset=-3/threads=13/lookahead_threads=3/sliced_threads=0/nr=0/decimate=0/interlaced=0/bluray_compat=0/constrained_intra=0/bframes=12/b_pyramid=2/b_adapt=2/b_bias=0/direct=3/weightb=1/open_gop=0/weightp=2/keyint=240/keyint_min=23/scenecut=40/intra_refresh=0/rc_lookahead=40/rc=2pass/mbtree=0/bitrate=1675/ratetol=1.0/qcomp=0.60/qpmin=0/qpmax=69/qpstep=4/cplxblur=20.0/qblur=0.5/vbv_maxrate=50000/vbv_bufsize=65000/nal_hrd=none/filler=0/ip_ratio=1.40/pb_ratio=1.30/aq=2: 1.00
Language : English
Default : Yes
Forced : No
Audio #1
ID : 2
Format : AC-3
Format/Info : Audio Coding 3
Commercial name : Dolby Digital
Codec ID : A_AC3
Duration : 1 h 32 min
Bit rate mode : Constant
Bit rate : 384 kb/s
Channel(s) : 6 channels
Channel layout : L R C LFE Ls Rs
Sampling rate : 48.0 kHz
Frame rate : 31.250 FPS (1536 SPF)
Compression mode : Lossy
Stream size : 253 MiB (15%)
Title : iTunes
Language : Russian
Service kind : Complete Main
Default : Yes
Forced : No
Audio #2
ID : 3
Format : AC-3
Format/Info : Audio Coding 3
Commercial name : Dolby Digital
Codec ID : A_AC3
Duration : 1 h 32 min
Bit rate mode : Constant
Bit rate : 448 kb/s
Channel(s) : 6 channels
Channel layout : L R C LFE Ls Rs
Sampling rate : 48.0 kHz
Frame rate : 31.250 FPS (1536 SPF)
Compression mode : Lossy
Stream size : 295 MiB (18%)
Title : Englich
Language : English
Service kind : Complete Main
Default : No
Forced : No
Text
ID : 4
Format : UTF-8
Codec ID : S_TEXT/UTF8
Codec ID/Info : UTF-8 Plain Text
Duration : 1 h 27 min
Bit rate : 68 b/s
Count of elements : 1594
Stream size : 43.5 KiB (0%)
Title : SDH
Language : English
Default : Yes
Forced : No
Menu
00: 00: 00.000 : : Chapter 1
00: 08: 20.708 : : Chapter 2
00: 16: 59.809 : : Chapter 3
00: 25: 56.053 : : Chapter 4
00: 31: 57.873 : : Chapter 5
00: 39: 01.296 : : Chapter 6
00: 46: 47.012 : : Chapter 7
00: 53: 13.940 : : Chapter 8
00: 59: 23.976 : : Chapter 9
01: 07: 08.774 : : Chapter 10
01: 14: 31.049 : : Chapter 11
01: 26: 27.765 : : Chapter 12

Скриншоты для ознакомления




Все одноименные релизы в Клубе
Время раздачи: с 4 до 20 мск (до появления первых 3-5 скачавших)
 
Уважаемый посетитель, Вы зашли на сайт как незарегистрированный пользователь. Мы рекомендуем Вам зарегистрироваться либо зайти на сайт под своим именем.

Другие новости по теме:

  • Клаустрофобы: Квест в Москве / Follow Me (2020) WEB-DLRip [MVO]
  • Клаустрофобы: Квест в Москве / Follow Me (2020) WEB-DL [H.264 / 1080p-LQ] [MVO]
  • Клаустрофобы: Квест в Москве / Follow Me (2020) WEB-DL [H.264 / 1080p-LQ]
  • Клаустрофобы: Квест в Москве / Follow Me (2020) WEB-DLRip [H.264]
  • Клаустрофобы: Квест в Москве / Follow Me (2020) WEB-DL [1080p] ATV
  • Клаустрофобы: Квест в Москве / Follow Me (2020) BDRip
  • Клаустрофобы: Квест в Москве / Follow Me (2020) BDRip [H.264 / 1080p]
  • Клаустрофобы: Квест в Москве / Follow Me (2020) BDRip [H.264 / 720p-LQ]


  • Информация
    Посетители, находящиеся в группе Гости, не могут оставлять комментарии в данной новости.
    Главная страница | Регистрация | Добавить новость | Новое на сайте Copyright © 2019. bolt.mmix.club All Rights Reserved