Подписывайся на наш канал в Telegram https://t.me/torrentok и получи доступ к торрентам без ограничений!
. bolt.mmix.club
Авторские права
con...@...Показать
Вход на сайт
Логин:
Пароль:
 
Навигация по сайту
Популярные статьи

Торрент трекер | Скачать торрент | Скачать через Торрент | Скачать торрент бесплатно | Скачать торрент без регистрации Фильмы торрент скачать Отыграть назад / The Undoing (2020) WEB-DLRip [H.264 / 1080p-LQ] (сезон 1, серии 1 из 6) IdeaFilm (обновляемая) [AD] торрент скачать бесплатно

Отыграть назад / The Undoing (2020) WEB-DLRip [H.264 / 1080p-LQ] (сезон 1, серии 1 из 6) IdeaFilm (обновляемая) [AD] торрент скачать бесплатно

Фильмы торрент скачать
Отыграть назад / The Undoing (2020) WEB-DLRip [H.264 / 1080p-LQ] (сезон 1, серии 1 из 6) IdeaFilm (обновляемая) [AD]Производство: США/Blossom Films, David E. Kelley Productions, HBO Original Programming
Жанр: триллер, драма, детектив
Режиссер: Сюзанна Бир

Актеры
Николь Кидман, Хью Грант, Ноа Джуп, Дональд Сазерленд, Эдгар Рамирес, Лили Рэйб, Матильда Де Анхелис, Исмаэль Круз, Эдан Александр, Майкл Дивайн

Описание

Грейс — успешный терапевт из Нью-Йорка, у неё все хорошо: любящий муж, прекрасный сын, богатая жизнь. Скоро у Грейс выйдет первая книга, в которой она советует женщинам слушать интуицию и верить первому впечатлению о мужчинах. Однако накануне выхода пропадает её муж, и сказочная жизнь оборачивается чередой неприятных откровений и PR-скандалом.


Дата мировой премьеры: 25.10.2020
Дата премьеры в России: 26.10.2020
Продолжительность: ~00: 56: 00 серия
Качество видео: WEB-DLRip
Перевод: Двуголосый профессиональный (IdeaFilm)
Реклама: Присутствуют текстовые вставки рекламы
Внимание! Присутствует ненормативная лексика!
Видео: AVC/H.264, 1920x960, ~5674 Kbps
Аудио 1: AC3, 6 ch, 384 Kbps - Русский
Аудио 2: AC3, 6 ch, 640 Kbps - Английский
Формат : Matroska
Версия формата : Version 4
Размер файла : 2, 65 Гбайт
Продолжительность : 55 м. 34 с.
Общий поток : 6 834 Кбит/сек
Дата кодирования : UTC 2020-10-28 19: 29: 07
Программа кодирования : mkvmerge v6.0.0 (\'Coming Up For Air\') built on Jan 20 2013 09: 52: 00
Библиотека кодирования : libebml v1.3.0 + libmatroska v1.4.0
Видео
Идентификатор : 1
Формат : AVC
Формат/Информация : Advanced Video Codec
Профиль формата : Main@L4.1
Настройки формата : CABAC/4 Ref Frames
Параметр CABAC формата : Да
Параметр RefFrames формата : 4 кадра
Идентификатор кодека : V_MPEG4/ISO/AVC
Продолжительность : 55 м. 34 с.
Битрейт : 5 674 Кбит/сек
Ширина : 1 920 пикселей
Высота : 960 пикселей
Соотношение сторон : 2, 000
Режим частоты кадров : Постоянный
Частота кадров : 23, 976 (24000/1001) кадра/сек
Цветовое пространство : YUV
Субдискретизация насыщенности : 4: 2: 0
Битовая глубина : 8 бит
Тип развёртки : Прогрессивная
Бит/(Пиксели*Кадры) : 0.128
Размер потока : 2, 20 Гбайт (83%)
Язык : English
Default : Да
Forced : Нет
Цветовой диапазон : Limited
Основные цвета : BT.709
Характеристики трансфера : BT.709
Коэффициенты матрицы : BT.709
Statistics Tags Issue : mkvmerge v51.0.0 (\'I Wish\') 64-bit 2020-10-26 16: 58: 18/mkvmerge v6.0.0 (\'Coming Up For Air\') built on Jan 20 2013 09: 52: 00 2020-10-28 19: 29: 07
FromStats_BitRate : 5809288
FromStats_Duration : 00: 56: 07.907000000
FromStats_FrameCount : 80749
FromStats_StreamSize : 2445643086
Аудио #1
Идентификатор : 2
Формат : AC-3
Формат/Информация : Audio Coding 3
Коммерческое название : Dolby Digital
Идентификатор кодека : A_AC3
Продолжительность : 55 м. 34 с.
Вид битрейта : Постоянный
Битрейт : 384 Кбит/сек
Каналы : 6 каналов
Channel layout : L R C LFE Ls Rs
Частота : 48, 0 КГц
Частота кадров : 31, 250 кадров/сек (1536 SPF)
Метод сжатия : С потерями
Задержка видео : 6 мс.
Размер потока : 153 Мбайт (6%)
Язык : Russian
Service kind : Complete Main
Default : Да
Forced : Нет
Statistics Tags Issue : mkvmerge v51.0.0 (\'I Wish\') 64-bit 2020-10-26 16: 58: 18/mkvmerge v6.0.0 (\'Coming Up For Air\') built on Jan 20 2013 09: 52: 00 2020-10-28 19: 29: 07
FromStats_BitRate : 384000
FromStats_Duration : 00: 56: 07.904000000
FromStats_FrameCount : 105247
FromStats_StreamSize : 161659392
Аудио #2
Идентификатор : 3
Формат : AC-3
Формат/Информация : Audio Coding 3
Коммерческое название : Dolby Digital
Идентификатор кодека : A_AC3
Продолжительность : 55 м. 34 с.
Вид битрейта : Постоянный
Битрейт : 640 Кбит/сек
Каналы : 6 каналов
Channel layout : L R C LFE Ls Rs
Частота : 48, 0 КГц
Частота кадров : 31, 250 кадров/сек (1536 SPF)
Метод сжатия : С потерями
Задержка видео : 14 мс.
Размер потока : 254 Мбайт (9%)
Язык : English
Service kind : Complete Main
Default : Нет
Forced : Нет
Statistics Tags Issue : mkvmerge v51.0.0 (\'I Wish\') 64-bit 2020-10-26 16: 58: 18/mkvmerge v6.0.0 (\'Coming Up For Air\') built on Jan 20 2013 09: 52: 00 2020-10-28 19: 29: 07
FromStats_BitRate : 640000
FromStats_Duration : 00: 55: 34.880000000
FromStats_FrameCount : 104215
FromStats_StreamSize : 266790400

Скриншоты для ознакомления



Все одноименные релизы в Клубе
Время раздачи: с 22-00 no 00-00 по московскому времени (до появления первых 3-5 скачавших)
 
Уважаемый посетитель, Вы зашли на сайт как незарегистрированный пользователь. Мы рекомендуем Вам зарегистрироваться либо зайти на сайт под своим именем.

Другие новости по теме:

  • Отыграть назад / The Undoing (2020) WEB-DL [H.264 / 1080p] (сезон 1, серии 1 из 6) Novamedia (обновляемая)
  • Отыграть назад / The Undoing (2020) WEB-DLRip (сезон 1, серии 1 из 6) ViruseProject (обновляемая) [AD]
  • Отыграть назад / The Undoing (2020) WEB-DLRip [H.264 / 1080p-LQ] (сезон 1, серии 1 из 6) ViruseProject (обновляемая) [AD]


  • Информация
    Посетители, находящиеся в группе Гости, не могут оставлять комментарии в данной новости.
    Главная страница | Регистрация | Добавить новость | Новое на сайте Copyright © 2019. bolt.mmix.club All Rights Reserved