Подписывайся на наш канал в Telegram https://t.me/torrentok и получи доступ к торрентам без ограничений!
. bolt.mmix.club
Авторские права
con...@...Показать
Вход на сайт
Логин:
Пароль:
 
Навигация по сайту
Популярные статьи

Торрент трекер | Скачать торрент | Скачать через Торрент | Скачать торрент бесплатно | Скачать торрент без регистрации Фильмы торрент скачать Майбергер. В голове преступника / Meiberger - Im Kopf des Taters (2019) WEBRip (сезон 2, серии 1-8 из 8) ViruseProject [AD] торрент скачать бесплатно

Майбергер. В голове преступника / Meiberger - Im Kopf des Taters (2019) WEBRip (сезон 2, серии 1-8 из 8) ViruseProject [AD] торрент скачать бесплатно

Фильмы торрент скачать
Майбергер. В голове преступника / Meiberger - Im Kopf des Taters (2019) WEBRip (сезон 2, серии 1-8 из 8) ViruseProject [AD]Производство: Австрия/Mona Film Produktion, Servus TV
Жанр: криминал, детектив
Режиссер: Маркус Ульбрихт, Солин Юсеф, Питер Бауманн

Актеры
Фриц Карл, Корнелиус Обонья, Ульрике С. Чарре, Jaschka Lämmert, Franz Josef Danner, Lino Gaier, Райнер Эггер, Хильде Далик, Отто Шенк, Таня Рауниг и д.р.

Описание

Томас Майбергер работает судебным психологом в Зальцбурге. Его работа заключается в раскрытии преступлений, которые невозможно понять с помощью простых улик и недостаточных доказательств. Если правоохранительная система, как правило в лице прокурора Барбары Симмы и комиссара Непомука Непо Вальнера, не знает, что делать, она обращается к Майбергеру. В работе ему помогает его хобби - иллюзионизм. Будучи судебным экспертом и иллюзионистом, Майбергер как никто другой знает человеческую душу и способен на неё воздействовать.


Релиз от: ViruseProject
Продолжительность: ~00: 45: 00 серия
Качество видео: WEBRip
Перевод: Двуголосый закадровый (ViruseProject)
Субтитры: Русские (отдельно)
Реклама: Присутствуют видео, аудио вставки рекламы
Видео: XviD, 720x400 (16: 9), ~1600 Kbps
Аудио #1: MP3, 2 ch, 128 Kbps - русский
Аудио #2: MP3, 2 ch, 128 Kbps - немецкий
Общее
Полное имя : F: ОЗВУЧКА888-ЗАЛИВ-888Meiberger.Im.Kopf.des.Taeters.S02.ViruseProjectMeiberger.Im.Kopf.des.Taeters.S02.400p.ViruseProjectMeiberger.Im.Kopf.des.Taeters.S02E01.400p.WEBRip.ViruseProject.avi
Формат : AVI
Формат/Информация : Audio Video Interleave
Размер файла : 637 Мбайт
Продолжительность : 47 м. 39 с.
Режим общего битрейта : Переменный
Общий поток : 1 870 Кбит/сек
Программа кодирования : VirtualDubMod 1.5.10.2 (build 2540/release)
Библиотека кодирования : VirtualDubMod build 2540/release
Видео
Идентификатор : 0
Формат : MPEG-4 Visual
Профиль формата : Advanced Simple@L5
Настройки формата : BVOP2
Параметр BVOP формата : 2
Параметр QPel формата : Нет
Параметр GMC формата : Без точки перехода
Параметр матрицы формата : Default (H.263)
Идентификатор кодека : XVID
Идентификатор кодека/Подсказка : XviD
Продолжительность : 47 м. 39 с.
Битрейт : 1 600 Кбит/сек
Ширина : 720 пикселей
Высота : 400 пикселей
Соотношение сторон : 16: 9
Частота кадров : 25, 000 кадров/сек
Цветовое пространство : YUV
Субдискретизация насыщенности : 4: 2: 0
Битовая глубина : 8 бит
Тип развёртки : Прогрессивная
Метод сжатия : С потерями
Бит/(Пиксели*Кадры) : 0.222
Размер потока : 545 Мбайт (86%)
Библиотека кодирования : XviD 69
Аудио #1
Идентификатор : 1
Формат : MPEG Audio
Версия формата : Version 1
Профиль формата : Layer 3
Настройки формата : Joint stereo/MS Stereo
Идентификатор кодека : 55
Идентификатор кодека/Подсказка : MP3
Продолжительность : 47 м. 39 с.
Вид битрейта : Переменный
Битрейт : 128 Кбит/сек
Каналы : 2 канала
Частота : 48, 0 КГц
Частота кадров : 41, 667 кадра/сек (1152 SPF)
Метод сжатия : С потерями
Размер потока : 43, 6 Мбайт (7%)
Выравнивание : Соединение по промежуткам
Продолжительность промежутка : 40 мс. (1, 00 видеокадр)
Время предзагрузки промежутка : 504 мс.
Аудио #2
Идентификатор : 2
Формат : MPEG Audio
Версия формата : Version 1
Профиль формата : Layer 3
Настройки формата : Joint stereo/MS Stereo
Идентификатор кодека : 55
Идентификатор кодека/Подсказка : MP3
Продолжительность : 47 м. 39 с.
Вид битрейта : Постоянный
Битрейт : 128 Кбит/сек
Каналы : 2 канала
Частота : 48, 0 КГц
Метод сжатия : С потерями
Размер потока : 43, 6 Мбайт (7%)
Выравнивание : Разделение по промежуткам
Продолжительность промежутка : 40 мс. (1, 00 видеокадр)
Время предзагрузки промежутка : 500 мс.
Библиотека кодирования : LAME3.100

Скриншоты для ознакомления



Все одноименные релизы в Клубе
Время раздачи: с 10: 00 до 24: 00 (до появления первых 3-5 скачавших)
 
Уважаемый посетитель, Вы зашли на сайт как незарегистрированный пользователь. Мы рекомендуем Вам зарегистрироваться либо зайти на сайт под своим именем.

Другие новости по теме:

  • Майбергер. В голове преступника / Meiberger - Im Kopf des Taters (2018) HDTV (сезон 1, серии 1-8 из 8) ViruseProject [AD]
  • Майбергер. В голове преступника / Meiberger - Im Kopf des Taters (2018) HDTV [H.264 / 1080p-LQ] (сезон 1, серии 1-8 из 8) ViruseProject [AD]
  • Майбергер. В голове преступника / Meiberger - Im Kopf des Taters (2019) WEBRip [H.264 / 720p-LQ] (сезон 2, серии 1-8 из 8) ViruseProject [AD]


  • Информация
    Посетители, находящиеся в группе Гости, не могут оставлять комментарии в данной новости.
    Главная страница | Регистрация | Добавить новость | Новое на сайте Copyright © 2019. bolt.mmix.club All Rights Reserved