Подписывайся на наш канал в Telegram https://t.me/torrentok и получи доступ к торрентам без ограничений!
. bolt.mmix.club
Авторские права
con...@...Показать
Вход на сайт
Логин:
Пароль:
 
Навигация по сайту
Популярные статьи

Торрент трекер | Скачать торрент | Скачать через Торрент | Скачать торрент бесплатно | Скачать торрент без регистрации Фильмы торрент скачать Jeff Lynnes ELO - Live at Glastonbury 2016 (2016) HDTV [H.264 / 1080i] торрент скачать бесплатно

Jeff Lynnes ELO - Live at Glastonbury 2016 (2016) HDTV [H.264 / 1080i] торрент скачать бесплатно

Фильмы торрент скачать
Jeff Lynnes ELO - Live at Glastonbury 2016 (2016) HDTV [H.264 / 1080i]Производство: BBC
Жанр: Rock

Описание

Концерт группы Jeff Lynne\'s ELO на фестивале Glastonbury (Великобритания) в 2016 году.
Продолжительность: 01: 09: 10
Качество видео: HDTV
Видео: AVC/H.264, 1920x1080, ~11.5 Mbps
Аудио: MP2, 2 ch, 256 Kbps
Треклист:
00: 00: 31.054 : : Evil Woman
00: 05: 04.120 : : Showdown
00: 09: 32.028 : : All Over the World
00: 13: 51.205 : : When I Was a Boy
00: 17: 25.112 : : Livin\' Thing
00: 21: 48.407 : : 10538 Overture
00: 26: 43.213 : : Rockaria!
00: 30: 15.479 : : Shine a Little Love
00: 34: 30.235 : : Wild West Hero
00: 38: 53.390 : : Telephone Line
00: 43: 48.391 : : Turn to Stone
00: 48: 04.470 : : Don\'t Bring Me Down
00: 52: 30.028 : : Sweet Talkin\' Woman
00: 56: 27.152 : : Mr. Blue Sky
01: 01: 48.233 : : Roll Over Beethoven (Chuck Berry cover)
General
Unique ID : 232246644995138500869373378351313178060 (0xAEB913A9AFC03968983B202765CBCDCC)
Complete name : H: torrdataJeff Lynnes ELO - Glastonbury 2016Jeff Lynnes ELO - Glastonbury 2016.mkv
Format : Matroska
Format version : Version 4
File size : 5.68 GiB
Duration : 1 h 9 min
Overall bit rate : 11.8 Mb/s
Encoded date : UTC 2016-06-27 15: 39: 17
Writing application : mkvmerge v7.9.0 (\'Birds\') 64bit
Writing library : libebml v1.3.1 + libmatroska v1.4.2
Video
ID : 1
Format : AVC
Format/Info : Advanced Video Codec
Format profile : High@L4.1
Format settings : CABAC/4 Ref Frames
Format settings, CABAC : Yes
Format settings, Reference frames : 4 frames
Codec ID : V_MPEG4/ISO/AVC
Duration : 1 h 9 min
Bit rate : 11.5 Mb/s
Width : 1 920 pixels
Height : 1 080 pixels
Display aspect ratio : 16: 9
Frame rate mode : Variable
Frame rate : 50.000 FPS
Original frame rate : 25.000 FPS
Color space : YUV
Chroma subsampling : 4: 2: 0
Bit depth : 8 bits
Scan type : Interlaced
Scan type, store method : Separated fields
Scan order : Top Field First
Bits/(Pixel*Frame) : 0.111
Stream size : 5.55 GiB (98%)
Title : Video
Default : Yes
Forced : No
Color range : Limited
Color primaries : BT.709
Transfer characteristics : BT.709
Matrix coefficients : BT.709
Audio
ID : 2
Format : MPEG Audio
Format version : Version 1
Format profile : Layer 2
Codec ID : A_MPEG/L2
Codec ID/Hint : MP2
Duration : 1 h 9 min
Bit rate mode : Constant
Bit rate : 256 kb/s
Channel(s) : 2 channels
Sampling rate : 48.0 kHz
Frame rate : 41.667 FPS (1152 SPF)
Compression mode : Lossy
Delay relative to video : 7 ms
Stream size : 127 MiB (2%)
Title : Audio
Language : English
Default : Yes
Forced : No
Menu
00: 00: 31.054 : : Evil Woman
00: 05: 04.120 : : Showdown
00: 09: 32.028 : : All Over the World
00: 13: 51.205 : : When I Was a Boy
00: 17: 25.112 : : Livin\' Thing
00: 21: 48.407 : : 10538 Overture
00: 26: 43.213 : : Rockaria!
00: 30: 15.479 : : Shine a Little Love
00: 34: 30.235 : : Wild West Hero
00: 38: 53.390 : : Telephone Line
00: 43: 48.391 : : Turn to Stone
00: 48: 04.470 : : Don\'t Bring Me Down
00: 52: 30.028 : : Sweet Talkin\' Woman
00: 56: 27.152 : : Mr. Blue Sky
01: 01: 48.233 : : Roll Over Beethoven (Chuck Berry cover)

Скриншоты для ознакомления



Все одноименные релизы в Клубе
Время раздачи: с 9: 00 до 24: 00 (до появления первых 3-5 скачавших)
 
Уважаемый посетитель, Вы зашли на сайт как незарегистрированный пользователь. Мы рекомендуем Вам зарегистрироваться либо зайти на сайт под своим именем.

Другие новости по теме:

  • Jeff Lynnes ELO (Electric Light Orchestra) - Alone in the Universe (2015) [MP3|128 кб / с]<Rock, Pop-Rock, Progressive Rock> скачать через торрент бесплатно
  • Jeff Lynnes ELO - Alone In The Universe (2015) Deluxe Edition [FLAC 2.0 24 / 96|tracks (WEB-DL)] <Rock> скачать через торрент бесплатно
  • Jeff Lynnes ELO - Alone In The Universe (2015) [FLAC 2.0 24 / 96|image (Vinyl-Rip)]<Rock> скачать через торрент бесплатно
  • Jeff Lynnes ELO - Wembley Or Bust (2017) Live [MP3|320 Kbps] <Rock, Progressive Rock>
  • Jeff Lynnes ELO - Wembley Or Bust (2017) DVD9
  • Jeff Lynnes ELO - Wembley Or Bust (2017) Blu-ray [H.264 / 1080p]
  • Jeff Lynnes ELO - From Out Of Nowhere (2019) [MP3|320 Kbps] <Rock>
  • Jeff Lynnes ELO - From Out Of Nowhere (2019) [FLAC|Lossless|tracks] <Rock>


  • Информация
    Посетители, находящиеся в группе Гости, не могут оставлять комментарии в данной новости.
    Главная страница | Регистрация | Добавить новость | Новое на сайте Copyright © 2019. bolt.mmix.club All Rights Reserved