Подписывайся на наш канал в Telegram https://t.me/torrentok и получи доступ к торрентам без ограничений!
. bolt.mmix.club
Авторские права
con...@...Показать
Вход на сайт
Логин:
Пароль:
 
Навигация по сайту
Популярные статьи

Торрент трекер | Скачать торрент | Скачать через Торрент | Скачать торрент бесплатно | Скачать торрент без регистрации Фильмы торрент скачать Тайна экспресса / Expressens Mysterium (1914) TVRip торрент скачать бесплатно

Тайна экспресса / Expressens Mysterium (1914) TVRip торрент скачать бесплатно

Фильмы торрент скачать
Тайна экспресса / Expressens Mysterium (1914) TVRipПроизводство: Дания, Nordisk Film Kompagni
Жанр: Драма, триллер, немое кино
Режиссер: Яльмар Давидсен

Актеры
Svend Aggerholm, Филип Бех, Мориц Белявский, Олуф Биллесборг, Axel Boesen, Кристель Холх, Ингеборг Дженсен, Doris Langkilde, Карл Лауритцен, Вальдемар Псиландер

Описание

История вражды двух фабрикантов-конкурентов. В борьбе со своим врагом один из них проявляет столь дьявольскую изощренность, что ему позавидовал бы сам змий-искуситель. Недаром в Америке фильм шел под названием Наедине с дьяволом. Картина снята в экспрессионистских тонах


Релиз от: Потейка
Продолжительность: 00: 55: 36
Качество видео: TVRip
Субтитры: Датские интертитры, русские отдельным файлом
Видео: Xvid, 576x432, ~1994 Kbps
Аудио: MP3, 2 ch, 160 Kbps
Общее
Полное имя : D: 1UPRetroExpressens_Mysterium_1914Expressens Mysterium.avi
Формат : AVI
Формат/Информация : Audio Video Interleave
Размер файла : 860 Мбайт
Продолжительность : 55 м. 36 с.
Общий поток : 2 163 Кбит/сек
Библиотека кодирования : VirtualDub build 32842/release
Видео
Идентификатор : 0
Формат : MPEG-4 Visual
Профиль формата : Advanced Simple@L5
Настройки формата : BVOP1
Параметр BVOP формата : 1
Параметр QPel формата : Нет
Параметр GMC формата : Без точки перехода
Параметр матрицы формата : Default (MPEG)
Идентификатор кодека : XVID
Идентификатор кодека/Подсказка : XviD
Продолжительность : 55 м. 36 с.
Битрейт : 1 994 Кбит/сек
Ширина : 576 пикселей
Высота : 432 пикселя
Соотношение сторон : 4: 3
Частота кадров : 23, 976 (23976/1000) кадра/сек
Цветовое пространство : YUV
Субдискретизация насыщенности : 4: 2: 0
Битовая глубина : 8 бит
Тип развёртки : Прогрессивная
Метод сжатия : С потерями
Бит/(Пиксели*Кадры) : 0.334
Размер потока : 793 Мбайт (92%)
Библиотека кодирования : XviD 1.2.0.dev47 (UTC 2006-11-01)
Аудио
Идентификатор : 1
Формат : MPEG Audio
Версия формата : Version 1
Профиль формата : Layer 3
Настройки формата : Joint stereo/MS Stereo
Идентификатор кодека : 55
Идентификатор кодека/Подсказка : MP3
Продолжительность : 55 м. 36 с.
Вид битрейта : Постоянный
Битрейт : 160 Кбит/сек
Каналы : 2 канала
Частота : 44, 1 КГц
Метод сжатия : С потерями
Размер потока : 63, 6 Мбайт (7%)
Выравнивание : Разделение по промежуткам
Продолжительность промежутка : 42 мс. (1, 00 видеокадр)
Время предзагрузки промежутка : 500 мс.
Библиотека кодирования : LAME3.97 (alpha)

Скриншоты для ознакомления



Все одноименные релизы в Клубе
Время раздачи: С 8 до 22 мск (до появления первых 3-5 скачавших)
 
Уважаемый посетитель, Вы зашли на сайт как незарегистрированный пользователь. Мы рекомендуем Вам зарегистрироваться либо зайти на сайт под своим именем.

Другие новости по теме:

  • Runaway Express Mystery / Тайна Летящего Экспресса (2015) [Ru] (1.0) Unofficial


  • Информация
    Посетители, находящиеся в группе Гости, не могут оставлять комментарии в данной новости.
    Главная страница | Регистрация | Добавить новость | Новое на сайте Copyright © 2019. bolt.mmix.club All Rights Reserved