Подписывайся на наш канал в Telegram https://t.me/torrentok и получи доступ к торрентам без ограничений!
. bolt.mmix.club
Авторские права
con...@...Показать
Вход на сайт
Логин:
Пароль:
 
Навигация по сайту
Популярные статьи

Торрент трекер | Скачать торрент | Скачать через Торрент | Скачать торрент бесплатно | Скачать торрент без регистрации Фильмы торрент скачать Спа / Thalasso (2019) WEB-DLRip [MVO] [AD] торрент скачать бесплатно

Спа / Thalasso (2019) WEB-DLRip [MVO] [AD] торрент скачать бесплатно

Фильмы торрент скачать
Спа / Thalasso (2019) WEB-DLRip [MVO] [AD]Производство: США/Франция, Les Films du Worso, Wild Bunch, Cofinova 15
Жанр: Комедия
Режиссер: Гийом Никлу

Актеры
Мишель Уэльбек, Жерар Депардье, Максим Лефрансуа, Матье Никур, Дарья Панченко, Люк Шварц, Qianyum Lysis, Norbert Hamelin, Christopher Aubert, Souvenance Pétré

Описание

Французский писатель Мишель Уэльбек и актер Жерар Депардье встречаются в центре талассотерапии в городе Кабур. Они честно пытаются придерживаться строго режима лечения, но внезапные события меняют их планы...


Дата мировой премьеры: 21 августа 2019
Продолжительность: 01: 32: 20
Качество видео: WEB-DLRip
Перевод: Многоголосый закадровый, любительский (MUZOBOZ)
Субтитры: Отсутствуют
Реклама: Присутствует баннер.
Видео: XviD, 720x304, ~1666 Kbps
Аудио: AC-3, 2 ch, 384 Kbps
Общее
Полное имя : D: NNMСпаThalasso.2020.WEB-DLRip.avi
Формат : AVI
Формат/Информация : Audio Video Interleave
Профиль формата : OpenDML
Размер файла : 1, 33 Гбайт
Продолжительность : 1 ч. 32 м.
Общий поток : 2063 Кбит/сек
Видео
Идентификатор : 0
Формат : MPEG-4 Visual
Профиль формата : Advanced Simple@L5
Настройки формата : BVOP2/Custom Matrix
Параметр BVOP формата : 2
Параметр QPel формата : Нет
Параметр GMC формата : Без точки перехода
Параметр матрицы формата : Выборочная
Идентификатор кодека : XVID
Идентификатор кодека/Подсказка : XviD
Продолжительность : 1 ч. 32 м.
Битрейт : 1666 Кбит/сек
Ширина : 720 пикселей
Высота : 304 пикселя
Соотношение сторон : 2, 35: 1
Частота кадров : 23, 976 (24000/1001) кадра/сек
Цветовое пространство : YUV
Субдискретизация насыщенности : 4: 2: 0
Битовая глубина : 8 бит
Тип развёртки : Прогрессивная
Метод сжатия : С потерями
Бит/(Пиксели*Кадры) : 0.317
Размер потока : 1, 07 Гбайт (81%)
Библиотека кодирования : XviD 1.2.1 (UTC 2008-12-04)
Аудио
Идентификатор : 1
Формат : AC-3
Формат/Информация : Audio Coding 3
Коммерческое название : Dolby Digital
Идентификатор кодека : 2000
Продолжительность : 1 ч. 32 м.
Вид битрейта : Постоянный
Битрейт : 384 Кбит/сек
Каналы : 2 канала
ChannelLayout : L R
Частота : 48, 0 КГц
Частота кадров : 31, 250 кадров/сек (1536 SPF)
Метод сжатия : С потерями
Размер потока : 254 Мбайт (19%)
Выравнивание : Соединение по промежуткам
Продолжительность промежутка : 32 мс. (0, 77 видеокадр)
ServiceKind/String : Complete Main

Скриншоты для ознакомления



Все одноименные релизы в Клубе Время раздачи: 24/7 (до первых 3-5 скачавших)
 
Уважаемый посетитель, Вы зашли на сайт как незарегистрированный пользователь. Мы рекомендуем Вам зарегистрироваться либо зайти на сайт под своим именем.

Другие новости по теме:

  • Спа / Thalasso (2019) WEB-DLRip [H.264 / 1080p-LQ] [MVO] [AD]


  • Информация
    Посетители, находящиеся в группе Гости, не могут оставлять комментарии в данной новости.
    Главная страница | Регистрация | Добавить новость | Новое на сайте Copyright © 2019. bolt.mmix.club All Rights Reserved