Подписывайся на наш канал в Telegram https://t.me/torrentok и получи доступ к торрентам без ограничений!
. bolt.mmix.club
Авторские права
con...@...Показать
Вход на сайт
Логин:
Пароль:
 
Навигация по сайту
Популярные статьи

Торрент трекер | Скачать торрент | Скачать через Торрент | Скачать торрент бесплатно | Скачать торрент без регистрации Фильмы торрент скачать Мисс Плохое поведение / Misbehaviour (2020) BDRemux [H.264 / 1080p] торрент скачать бесплатно

Мисс Плохое поведение / Misbehaviour (2020) BDRemux [H.264 / 1080p] торрент скачать бесплатно

Фильмы торрент скачать
Мисс Плохое поведение / Misbehaviour (2020) BDRemux [H.264 / 1080p]Производство: Великобритания, Франция, Pathé, BBC Films, British Film Institute
Жанр: Комедия, драма, история
Режиссер: Филиппа Лоуторп
Продюсер: Сюзанн Маки, Сара Уил, Дженни Боргарс

Актеры
Кира Найтли, Гугу Эмбата-Ро, Джесси Бакли, Лесли Мэнвилл, Грег Кинниэр, Кили Хоуз, Рис Иванс, Филлис Логан, Джон Сэквилл, Сьюки Уотерхаус

Описание
Англия, 1970-е, эпоха сексуальной революции и поисков новой свободы. Миллионы восторженных зрителей, вспышки фотокамер, шикарные наряды и секси-купальники – на лондонский подиум выходят топ-модели со всего света. И тут в сияющий огнями Альберт-холл врывается группа девушек.


Возраст: 16+ (зрителям, достигшим 16 лет)
Дата мировой премьеры: 9 марта 2020
Дата российской премьеры: 9 июля 2020, Парадиз
Релиз от: NNMClub
Продолжительность: 01: 46: 20
Качество видео: BDRemux 1080p
Перевод: Дублированный(iTunes)
Субтитры: Английские (Full)
Видео: AVC/H.264, 1920x1080, 31.9 Mbps, 24.000 fps
Аудио 1 : AC-3, 6 ch, 384 Kbps | Русский
Аудио 2 : DTS-HD MA, 6 ch, 2800 Kbps | Английский
General
Unique ID : 222014508922545542372263018632863235400 (0xA7067067B182D9993D8CFC8C7A2F3D48)
Complete name : /Volumes/Promise Pegasus/Misbehaviour.BDRemux.1080p.pk.mkv
Format : Matroska
Format version : Version 4
File size : 26.1 GiB
Duration : 1 h 46 min
Overall bit rate mode : Variable
Overall bit rate : 35.1 Mb/s
Movie name : Misbehaviour BDRemux 1080p pk
Encoded date : UTC 2020-10-29 22: 32: 45
Writing application : mkvmerge v51.0.0 (\'I Wish\') 64-bit
Writing library : libebml v1.4.0 + libmatroska v1.6.2
Video
ID : 1
Format : AVC
Format/Info : Advanced Video Codec
Format profile : High@L4.1
Format settings : CABAC/4 Ref Frames
Format settings, CABAC : Yes
Format settings, Reference frames : 4 frames
Codec ID : V_MPEG4/ISO/AVC
Duration : 1 h 46 min
Bit rate mode : Constant
Bit rate : 31.9 Mb/s
Nominal bit rate : 34.0 Mb/s
Width : 1 920 pixels
Height : 1 080 pixels
Display aspect ratio : 16: 9
Frame rate mode : Constant
Frame rate : 24.000 FPS
Color space : YUV
Chroma subsampling : 4: 2: 0
Bit depth : 8 bits
Scan type : Progressive
Bits/(Pixel*Frame) : 0.641
Stream size : 23.7 GiB (91%)
Language : English
Default : Yes
Forced : No
Audio #1
ID : 2
Format : AC-3
Format/Info : Audio Coding 3
Commercial name : Dolby Digital
Codec ID : A_AC3
Duration : 1 h 46 min
Bit rate mode : Constant
Bit rate : 384 kb/s
Channel(s) : 6 channels
Channel layout : L R C LFE Ls Rs
Sampling rate : 48.0 kHz
Frame rate : 31.250 FPS (1536 SPF)
Compression mode : Lossy
Stream size : 292 MiB (1%)
Title : Russian Dub iTunes
Language : Russian
Service kind : Complete Main
Default : Yes
Forced : No
Audio #2
ID : 3
Format : DTS XLL
Format/Info : Digital Theater Systems
Commercial name : DTS-HD Master Audio
Codec ID : A_DTS
Duration : 1 h 46 min
Bit rate mode : Variable
Bit rate : 2 800 kb/s
Channel(s) : 6 channels
Channel layout : C L R Ls Rs LFE
Sampling rate : 48.0 kHz
Frame rate : 93.750 FPS (512 SPF)
Bit depth : 24 bits
Compression mode : Lossless
Stream size : 2.08 GiB (8%)
Title : English Original
Language : English
Default : No
Forced : No
Text
ID : 4
Format : UTF-8
Codec ID : S_TEXT/UTF8
Codec ID/Info : UTF-8 Plain Text
Duration : 1 h 39 min
Bit rate : 65 b/s
Count of elements : 1457
Stream size : 48.0 KiB (0%)
Title : English full
Language : English
Default : No
Forced : No
Menu
00: 00: 00.000 : en: Chapter 01
00: 07: 35.500 : en: Chapter 02
00: 16: 33.375 : en: Chapter 03
00: 24: 28.250 : en: Chapter 04
00: 32: 25.125 : en: Chapter 05
00: 41: 28.750 : en: Chapter 06
00: 49: 59.333 : en: Chapter 07
00: 59: 42.791 : en: Chapter 08
01: 08: 28.250 : en: Chapter 09
01: 15: 19.541 : en: Chapter 10
01: 25: 17.125 : en: Chapter 11
01: 34: 20.541 : en: Chapter 12
01: 46: 18.166 : en: Chapter 13

Скриншоты для ознакомления



Все одноименные релизы в Клубе
Время раздачи: 24/7 (круглосуточно) (до появления первых 3-5 скачавших)
 
Уважаемый посетитель, Вы зашли на сайт как незарегистрированный пользователь. Мы рекомендуем Вам зарегистрироваться либо зайти на сайт под своим именем.

Другие новости по теме:

  • Мисс Плохое поведение / Misbehaviour (2020) WEB-DLRip [MVO]
  • Мисс Плохое поведение / Misbehaviour (2020) WEB-DL [H.264 / 1080p-LQ] [MVO]
  • Мисс Плохое поведение / Misbehaviour (2020) WEB-DL [H.264 / 1080p-LQ]
  • Мисс Плохое поведение / Misbehaviour (2020) WEB-DLRip
  • Мисс Плохое поведение / Misbehaviour (2020) WEB-DL [H.264 / 1080p-LQ]
  • Мисс Плохое поведение / Misbehaviour (2020) BDRip [H.264 / 1080р]
  • Мисс Плохое поведение / Misbehaviour (2020) BDRip [H.264 / 720р]
  • Мисс Плохое поведение / Misbehaviour (2020) BDRip [H.264 / 1080p]


  • Информация
    Посетители, находящиеся в группе Гости, не могут оставлять комментарии в данной новости.
    Главная страница | Регистрация | Добавить новость | Новое на сайте Copyright © 2019. bolt.mmix.club All Rights Reserved