Подписывайся на наш канал в Telegram https://t.me/torrentok и получи доступ к торрентам без ограничений!
. bolt.mmix.club
Авторские права
con...@...Показать
Вход на сайт
Логин:
Пароль:
 
Навигация по сайту
Популярные статьи

Торрент трекер | Скачать торрент | Скачать через Торрент | Скачать торрент бесплатно | Скачать торрент без регистрации Фильмы торрент скачать Аванпост (2020) WEBRip (сезон 1, серии 1-3 из 6) (обновляемая) торрент скачать бесплатно

Аванпост (2020) WEBRip (сезон 1, серии 1-3 из 6) (обновляемая) торрент скачать бесплатно

Фильмы торрент скачать
Аванпост (2020) WEBRip (сезон 1, серии 1-3 из 6) (обновляемая)Производство: Россия/1-2-3 Production
Жанр: триллер, фантастика, боевик
Режиссер: Егор Баранов

Актеры
Лукерья Ильяшенко, Пётр Фёдоров, Светлана Иванова, Алексей Чадов, Ксения Кутепова, Константин Лавроненко, Филипп Авдеев, Артем Маркарьян, Сергей Годин, Артем Ткаченко и др.

Описание

На землю не падал метеорит, террористы не придумали глобальной угрозы, сверхдержавы не развязали атомную войну, но… что-то произошло. Связь с большей частью населённых пунктов земли оборвалась. Космонавты передали с Орбиты, что видят сверху небольшое пятно, в котором, возможно, все еще продолжается жизнь. То, что военные находят там, шокирует…

Возраст: 18+ (зрителям, достигшим 18 лет. запрещено для детей)
Дата российской премьеры: 26 октября 2020 ТВ3
Продолжительность: ~00: 50: 00 серия
Качество видео: WEBRip
Внимание! Присутствует ненормативная лексика.
Видео: Xvid, 720x304, ~1470 Kbps
Аудио: AC3, 2 ch, 192 kbps
Общее
Полное имя : D: ЗагруженныеAvanpost.2020.WEB-DLRip.25KuzmichAvanpost.e01.WEB-DLRip.25Kuzmich.avi
Формат : AVI
Формат/Информация : Audio Video Interleave
Размер файла : 600 Мбайт
Продолжительность : 50 м. 13 с.
Общий поток : 1 671 Кбит/сек
Программа кодирования : VirtualDubMod 1.5.10.3 |www.virtualdub-fr.org|| (build 2550/release)
Библиотека кодирования : VirtualDubMod build 2550/release
Видео
Идентификатор : 0
Формат : MPEG-4 Visual
Профиль формата : Advanced Simple@L5
Настройки формата : BVOP1
Параметр BVOP формата : 1
Параметр QPel формата : Нет
Параметр GMC формата : Без точки перехода
Параметр матрицы формата : Default (MPEG)
Идентификатор кодека : XVID
Идентификатор кодека/Подсказка : XviD
Продолжительность : 50 м. 13 с.
Битрейт : 1 469 Кбит/сек
Ширина : 720 пикселей
Высота : 304 пикселя
Соотношение сторон : 2, 35: 1
Частота кадров : 25, 000 кадров/сек
Цветовое пространство : YUV
Субдискретизация насыщенности : 4: 2: 0
Битовая глубина : 8 бит
Тип развёртки : Прогрессивная
Метод сжатия : С потерями
Бит/(Пиксели*Кадры) : 0.268
Размер потока : 528 Мбайт (88%)
Библиотека кодирования : XviD 73
Аудио
Идентификатор : 1
Формат : AC-3
Формат/Информация : Audio Coding 3
Коммерческое название : Dolby Digital
Идентификатор кодека : 2000
Продолжительность : 50 м. 13 с.
Вид битрейта : Постоянный
Битрейт : 192 Кбит/сек
Каналы : 2 канала
Channel layout : L R
Частота : 48, 0 КГц
Частота кадров : 31, 250 кадров/сек (1536 SPF)
Метод сжатия : С потерями
Размер потока : 69, 0 Мбайт (11%)
Выравнивание : Разделение по промежуткам
Продолжительность промежутка : 40 мс. (1, 00 видеокадр)
Время предзагрузки промежутка : 500 мс.
Service kind : Complete Main

Скриншоты для ознакомления



Все одноименные релизы в Клубе
Время раздачи: 24/7 (мультитрекерная раздача) (до появления первых 3-5 скачавших)
 
Уважаемый посетитель, Вы зашли на сайт как незарегистрированный пользователь. Мы рекомендуем Вам зарегистрироваться либо зайти на сайт под своим именем.

Другие новости по теме:

  • Аванпост / The Outpost (2018) WEBRip [H.264 / 1080] (сезон 1, серии 1 из 10) OMSKBIRD (обновляемая) [AD]
  • Аванпост / The Outpost (2020) WEBRip [H.264 / 1080p] (сезон 3, серии 1 из 13) LostFilm (обновляемая)
  • Аванпост / The Outpost (2019) WEBRip [H.264 / 720p-LQ] (сезон 2, серии 1-13 из 13) LostFilm


  • Информация
    Посетители, находящиеся в группе Гости, не могут оставлять комментарии в данной новости.
    Главная страница | Регистрация | Добавить новость | Новое на сайте Copyright © 2019. bolt.mmix.club All Rights Reserved